  0
SECTION
  2
HEADER
  9
$ACADVER
  1
AC1015
  9
$ACADMAINTVER
 70
     6
  9
$DWGCODEPAGE
  3
ANSI_1252
  9
$INSBASE
 10
0.0
 20
0.0
 30
0.0
  9
$EXTMIN
 10
1623.00296059488
 20
-1531.59076759915
 30
0.0
  9
$EXTMAX
 10
1833.00296059488
 20
-1234.59076759915
 30
0.0
  9
$LIMMIN
 10
0.0
 20
0.0
  9
$LIMMAX
 10
12.0
 20
9.0
  9
$ORTHOMODE
 70
     0
  9
$REGENMODE
 70
     1
  9
$FILLMODE
 70
     1
  9
$QTEXTMODE
 70
     0
  9
$MIRRTEXT
 70
     1
  9
$LTSCALE
 40
1.0
  9
$ATTMODE
 70
     1
  9
$TEXTSIZE
 40
0.2
  9
$TRACEWID
 40
0.05
  9
$TEXTSTYLE
  7
Standard
  9
$CLAYER
  8
0
  9
$CELTYPE
  6
ByLayer
  9
$CECOLOR
 62
   256
  9
$CELTSCALE
 40
1.0
  9
$DISPSILH
 70
     0
  9
$DIMSCALE
 40
1.0
  9
$DIMASZ
 40
0.18
  9
$DIMEXO
 40
0.0625
  9
$DIMDLI
 40
0.38
  9
$DIMRND
 40
0.0
  9
$DIMDLE
 40
0.0
  9
$DIMEXE
 40
0.18
  9
$DIMTP
 40
0.0
  9
$DIMTM
 40
0.0
  9
$DIMTXT
 40
0.18
  9
$DIMCEN
 40
0.09
  9
$DIMTSZ
 40
0.0
  9
$DIMTOL
 70
     0
  9
$DIMLIM
 70
     0
  9
$DIMTIH
 70
     1
  9
$DIMTOH
 70
     1
  9
$DIMSE1
 70
     0
  9
$DIMSE2
 70
     0
  9
$DIMTAD
 70
     0
  9
$DIMZIN
 70
     0
  9
$DIMBLK
  1

  9
$DIMASO
 70
     1
  9
$DIMSHO
 70
     1
  9
$DIMPOST
  1

  9
$DIMAPOST
  1

  9
$DIMALT
 70
     0
  9
$DIMALTD
 70
     2
  9
$DIMALTF
 40
25.4
  9
$DIMLFAC
 40
1.0
  9
$DIMTOFL
 70
     0
  9
$DIMTVP
 40
0.0
  9
$DIMTIX
 70
     0
  9
$DIMSOXD
 70
     0
  9
$DIMSAH
 70
     0
  9
$DIMBLK1
  1

  9
$DIMBLK2
  1

  9
$DIMSTYLE
  2
Standard
  9
$DIMCLRD
 70
     0
  9
$DIMCLRE
 70
     0
  9
$DIMCLRT
 70
     0
  9
$DIMTFAC
 40
1.0
  9
$DIMGAP
 40
0.09
  9
$DIMJUST
 70
     0
  9
$DIMSD1
 70
     0
  9
$DIMSD2
 70
     0
  9
$DIMTOLJ
 70
     1
  9
$DIMTZIN
 70
     0
  9
$DIMALTZ
 70
     0
  9
$DIMALTTZ
 70
     0
  9
$DIMUPT
 70
     0
  9
$DIMDEC
 70
     4
  9
$DIMTDEC
 70
     4
  9
$DIMALTU
 70
     2
  9
$DIMALTTD
 70
     2
  9
$DIMTXSTY
  7
Standard
  9
$DIMAUNIT
 70
     0
  9
$DIMADEC
 70
     0
  9
$DIMALTRND
 40
0.0
  9
$DIMAZIN
 70
     0
  9
$DIMDSEP
 70
    46
  9
$DIMATFIT
 70
     3
  9
$DIMFRAC
 70
     0
  9
$DIMLDRBLK
  1

  9
$DIMLUNIT
 70
     2
  9
$DIMLWD
 70
    -2
  9
$DIMLWE
 70
    -2
  9
$DIMTMOVE
 70
     0
  9
$LUNITS
 70
     2
  9
$LUPREC
 70
     4
  9
$SKETCHINC
 40
0.1
  9
$FILLETRAD
 40
0.5
  9
$AUNITS
 70
     0
  9
$AUPREC
 70
     0
  9
$MENU
  1
.
  9
$ELEVATION
 40
0.0
  9
$PELEVATION
 40
0.0
  9
$THICKNESS
 40
0.0
  9
$LIMCHECK
 70
     0
  9
$CHAMFERA
 40
0.5
  9
$CHAMFERB
 40
0.5
  9
$CHAMFERC
 40
1.0
  9
$CHAMFERD
 40
0.0
  9
$SKPOLY
 70
     0
  9
$TDCREATE
 40
2456997.601403194
  9
$TDUCREATE
 40
2456997.559736528
  9
$TDUPDATE
 40
2456997.601403553
  9
$TDUUPDATE
 40
2456997.559736887
  9
$TDINDWG
 40
0.0000000116
  9
$TDUSRTIMER
 40
0.0000000116
  9
$USRTIMER
 70
     1
  9
$ANGBASE
 50
0.0
  9
$ANGDIR
 70
     0
  9
$PDMODE
 70
     0
  9
$PDSIZE
 40
0.0
  9
$PLINEWID
 40
0.0
  9
$SPLFRAME
 70
     0
  9
$SPLINETYPE
 70
     6
  9
$SPLINESEGS
 70
     8
  9
$HANDSEED
  5
41D
  9
$SURFTAB1
 70
     6
  9
$SURFTAB2
 70
     6
  9
$SURFTYPE
 70
     6
  9
$SURFU
 70
     6
  9
$SURFV
 70
     6
  9
$UCSBASE
  2

  9
$UCSNAME
  2

  9
$UCSORG
 10
0.0
 20
0.0
 30
0.0
  9
$UCSXDIR
 10
1.0
 20
0.0
 30
0.0
  9
$UCSYDIR
 10
0.0
 20
1.0
 30
0.0
  9
$UCSORTHOREF
  2

  9
$UCSORTHOVIEW
 70
     0
  9
$UCSORGTOP
 10
0.0
 20
0.0
 30
0.0
  9
$UCSORGBOTTOM
 10
0.0
 20
0.0
 30
0.0
  9
$UCSORGLEFT
 10
0.0
 20
0.0
 30
0.0
  9
$UCSORGRIGHT
 10
0.0
 20
0.0
 30
0.0
  9
$UCSORGFRONT
 10
0.0
 20
0.0
 30
0.0
  9
$UCSORGBACK
 10
0.0
 20
0.0
 30
0.0
  9
$PUCSBASE
  2

  9
$PUCSNAME
  2

  9
$PUCSORG
 10
0.0
 20
0.0
 30
0.0
  9
$PUCSXDIR
 10
1.0
 20
0.0
 30
0.0
  9
$PUCSYDIR
 10
0.0
 20
1.0
 30
0.0
  9
$PUCSORTHOREF
  2

  9
$PUCSORTHOVIEW
 70
     0
  9
$PUCSORGTOP
 10
0.0
 20
0.0
 30
0.0
  9
$PUCSORGBOTTOM
 10
0.0
 20
0.0
 30
0.0
  9
$PUCSORGLEFT
 10
0.0
 20
0.0
 30
0.0
  9
$PUCSORGRIGHT
 10
0.0
 20
0.0
 30
0.0
  9
$PUCSORGFRONT
 10
0.0
 20
0.0
 30
0.0
  9
$PUCSORGBACK
 10
0.0
 20
0.0
 30
0.0
  9
$USERI1
 70
     0
  9
$USERI2
 70
     0
  9
$USERI3
 70
     0
  9
$USERI4
 70
     0
  9
$USERI5
 70
     0
  9
$USERR1
 40
18.1
  9
$USERR2
 40
0.0
  9
$USERR3
 40
0.0
  9
$USERR4
 40
0.0
  9
$USERR5
 40
0.0
  9
$WORLDVIEW
 70
     1
  9
$SHADEDGE
 70
     3
  9
$SHADEDIF
 70
    70
  9
$TILEMODE
 70
     1
  9
$MAXACTVP
 70
    64
  9
$PINSBASE
 10
0.0
 20
0.0
 30
0.0
  9
$PLIMCHECK
 70
     0
  9
$PEXTMIN
 10
1.00000000000000E+20
 20
1.00000000000000E+20
 30
1.00000000000000E+20
  9
$PEXTMAX
 10
-1.00000000000000E+20
 20
-1.00000000000000E+20
 30
-1.00000000000000E+20
  9
$PLIMMIN
 10
0.0
 20
0.0
  9
$PLIMMAX
 10
12.0
 20
9.0
  9
$UNITMODE
 70
     0
  9
$VISRETAIN
 70
     1
  9
$PLINEGEN
 70
     0
  9
$PSLTSCALE
 70
     1
  9
$TREEDEPTH
 70
  3020
  9
$CMLSTYLE
  2
Standard
  9
$CMLJUST
 70
     0
  9
$CMLSCALE
 40
1.0
  9
$PROXYGRAPHICS
 70
     1
  9
$MEASUREMENT
 70
     1
  9
$CELWEIGHT
370
    -1
  9
$ENDCAPS
280
     0
  9
$JOINSTYLE
280
     0
  9
$LWDISPLAY
290
     0
  9
$INSUNITS
 70
     4
  9
$HYPERLINKBASE
  1

  9
$STYLESHEET
  1

  9
$XEDIT
290
     1
  9
$CEPSNTYPE
380
     0
  9
$PSTYLEMODE
290
     1
  9
$FINGERPRINTGUID
  2
{6F2E157A-0E66-4DFD-93FD-43B6F33B49E2}
  9
$VERSIONGUID
  2
{FAEB1C32-E019-11D5-929B-00C0DF256EC4}
  9
$EXTNAMES
290
     1
  9
$PSVPSCALE
 40
0.0
  9
$OLESTARTUP
290
     0
  0
ENDSEC
  0
SECTION
  2
CLASSES
  0
CLASS
  1
ACDBDICTIONARYWDFLT
  2
AcDbDictionaryWithDefault
  3
ObjectDBX Classes
 90
        0
280
     0
281
     0
  0
CLASS
  1
VISUALSTYLE
  2
AcDbVisualStyle
  3
ObjectDBX Classes
 90
     4095
280
     0
281
     0
  0
CLASS
  1
MATERIAL
  2
AcDbMaterial
  3
ObjectDBX Classes
 90
     1153
280
     0
281
     0
  0
CLASS
  1
DICTIONARYVAR
  2
AcDbDictionaryVar
  3
ObjectDBX Classes
 90
        0
280
     0
281
     0
  0
CLASS
  1
ACDBPLACEHOLDER
  2
AcDbPlaceHolder
  3
ObjectDBX Classes
 90
        0
280
     0
281
     0
  0
CLASS
  1
LAYOUT
  2
AcDbLayout
  3
ObjectDBX Classes
 90
        0
280
     0
281
     0
  0
ENDSEC
  0
SECTION
  2
TABLES
  0
TABLE
  2
VPORT
  5
8
330
0
100
AcDbSymbolTable
 70
     1
  0
VPORT
  5
29
330
8
100
AcDbSymbolTableRecord
100
AcDbViewportTableRecord
  2
*Active
 70
     0
 10
0.0
 20
0.0
 11
1.0
 21
1.0
 12
1728.00296059488
 22
-1383.09076759915
 13
0.0
 23
0.0
 14
0.5
 24
0.5
 15
0.5
 25
0.5
 16
0.0
 26
0.0
 36
1.0
 17
0.0
 27
0.0
 37
0.0
 40
326.7
 41
1.60267857142857
 42
50.0
 43
0.0
 44
0.0
 50
0.0
 51
0.0
 71
     0
 72
   100
 73
     1
 74
     3
 75
     0
 76
     0
 77
     0
 78
     0
281
     0
 65
     1
110
0.0
120
0.0
130
0.0
111
1.0
121
0.0
131
0.0
112
0.0
122
1.0
132
0.0
 79
     0
146
0.0
  0
ENDTAB
  0
TABLE
  2
LTYPE
  5
5
330
0
100
AcDbSymbolTable
 70
     8
  0
LTYPE
  5
14
330
5
100
AcDbSymbolTableRecord
100
AcDbLinetypeTableRecord
  2
ByBlock
 70
     0
  3

 72
    65
 73
     0
 40
0.0
  0
LTYPE
  5
15
330
5
100
AcDbSymbolTableRecord
100
AcDbLinetypeTableRecord
  2
ByLayer
 70
     0
  3

 72
    65
 73
     0
 40
0.0
  0
LTYPE
  5
16
330
5
100
AcDbSymbolTableRecord
100
AcDbLinetypeTableRecord
  2
Continuous
 70
     0
  3
Solid line
 72
    65
 73
     0
 40
0.0
  0
LTYPE
  5
3F
330
5
100
AcDbSymbolTableRecord
100
AcDbLinetypeTableRecord
  2
DASHED
 70
     0
  3
Dashed
 72
    65
 73
     2
 40
15.0
 49
7.0
 74
     0
 49
-8.0
 74
     0
  0
LTYPE
  5
40
330
5
100
AcDbSymbolTableRecord
100
AcDbLinetypeTableRecord
  2
DOTTED
 70
     0
  3
Dotted
 72
    65
 73
     2
 40
1.0
 49
0.0
 74
     0
 49
-1.0
 74
     0
  0
LTYPE
  5
41
330
5
100
AcDbSymbolTableRecord
100
AcDbLinetypeTableRecord
  2
DOT_CENTER
 70
     0
  3
Dot_Center
 72
    65
 73
     4
 40
14.0
 49
12.0
 74
     0
 49
-1.0
 74
     0
 49
0.0
 74
     0
 49
-1.0
 74
     0
  0
LTYPE
  5
42
330
5
100
AcDbSymbolTableRecord
100
AcDbLinetypeTableRecord
  2
LONG_DASHED
 70
     0
  3
Long_Dashed
 72
    65
 73
     2
 40
15.0
 49
10.0
 74
     0
 49
-5.0
 74
     0
  0
LTYPE
  5
43
330
5
100
AcDbSymbolTableRecord
100
AcDbLinetypeTableRecord
  2
DASH_CENTER
 70
     0
  3
Dash_Center
 72
    65
 73
     4
 40
14.0
 49
11.0
 74
     0
 49
-1.0
 74
     0
 49
1.0
 74
     0
 49
-1.0
 74
     0
  0
LTYPE
  5
44
330
5
100
AcDbSymbolTableRecord
100
AcDbLinetypeTableRecord
  2
PHANTOM
 70
     0
  3
Phantom
 72
    65
 73
     6
 40
13.0
 49
10.0
 74
     0
 49
-1.0
 74
     0
 49
0.0
 74
     0
 49
-1.0
 74
     0
 49
0.0
 74
     0
 49
-1.0
 74
     0
  0
LTYPE
  5
45
330
5
100
AcDbSymbolTableRecord
100
AcDbLinetypeTableRecord
  2
CENTER_DASH_DASH
 70
     0
  3
Center_Dash_Dash
 72
    65
 73
     6
 40
14.0
 49
9.0
 74
     0
 49
-1.0
 74
     0
 49
1.0
 74
     0
 49
-1.0
 74
     0
 49
1.0
 74
     0
 49
-1.0
 74
     0
  0
ENDTAB
  0
TABLE
  2
LAYER
  5
2
330
0
100
AcDbSymbolTable
 70
     2
  0
LAYER
  5
10
330
2
100
AcDbSymbolTableRecord
100
AcDbLayerTableRecord
  2
0
 70
     0
 62
     7
  6
Continuous
370
    -3
390
F
  0
LAYER
  5
46
330
2
100
AcDbSymbolTableRecord
100
AcDbLayerTableRecord
  2
1
 70
     0
 62
     7
  6
Continuous
370
    -3
390
F
  0
ENDTAB
  0
TABLE
  2
STYLE
  5
3
330
0
100
AcDbSymbolTable
 70
     3
  0
STYLE
  5
11
330
3
100
AcDbSymbolTableRecord
100
AcDbTextStyleTableRecord
  2
Standard
 70
     0
 40
0.0
 41
1.0
 50
0.0
 71
     0
 42
0.2
  3
txt
  4

  0
STYLE
  5
3A8
330
3
100
AcDbSymbolTableRecord
100
AcDbTextStyleTableRecord
  2
CONVERTER_11
 70
     0
 40
0.0
 41
1.2
 50
0.0
 71
     0
 42
0.2
  3
ARIAL.TTF
  4

  0
STYLE
  5
3B7
330
3
100
AcDbSymbolTableRecord
100
AcDbTextStyleTableRecord
  2
CONVERTER_12
 70
     0
 40
0.0
 41
0.95
 50
0.0
 71
     0
 42
0.2
  3
simplex.shx
  4

  0
ENDTAB
  0
TABLE
  2
VIEW
  5
6
330
0
100
AcDbSymbolTable
 70
     0
  0
ENDTAB
  0
TABLE
  2
UCS
  5
7
330
0
100
AcDbSymbolTable
 70
     0
  0
ENDTAB
  0
TABLE
  2
APPID
  5
9
330
0
100
AcDbSymbolTable
 70
     1
  0
APPID
  5
12
330
9
100
AcDbSymbolTableRecord
100
AcDbRegAppTableRecord
  2
ACAD
 70
     0
  0
ENDTAB
  0
TABLE
  2
DIMSTYLE
  5
A
330
0
100
AcDbSymbolTable
 70
     6
100
AcDbDimStyleTable
  0
DIMSTYLE
105
27
330
A
100
AcDbSymbolTableRecord
100
AcDbDimStyleTableRecord
  2
Standard
 70
     0
178
     0
340
11
  0
DIMSTYLE
105
3BB
102
{ACAD_REACTORS
330
3BC
102
}
330
A
100
AcDbSymbolTableRecord
100
AcDbDimStyleTableRecord
  2
ME10_DIM_10
 70
     0
 41
3.0
 42
0.5
 44
1.0
 73
     0
 74
     0
 77
     1
 78
     8
140
3.0
147
2.0
172
     1
173
     1
174
     1
175
     1
176
     2
177
     2
271
     2
178
     4
271
     2
340
3B7
  0
DIMSTYLE
105
3C6
102
{ACAD_REACTORS
330
3C7
102
}
330
A
100
AcDbSymbolTableRecord
100
AcDbDimStyleTableRecord
  2
ME10_DIM_11
 70
     0
 41
3.0
 42
0.5
 44
1.0
 73
     0
 74
     0
 77
     1
 78
     8
140
3.0
147
2.0
172
     1
173
     1
174
     1
175
     1
176
     2
177
     2
271
     2
178
     4
271
     2
340
3B7
  0
DIMSTYLE
105
3D1
102
{ACAD_REACTORS
330
3D2
102
}
330
A
100
AcDbSymbolTableRecord
100
AcDbDimStyleTableRecord
  2
ME10_DIM_12
 70
     0
 41
3.0
 42
0.5
 44
1.0
 73
     0
 74
     0
 77
     1
 78
     8
140
3.0
147
2.0
172
     1
173
     1
174
     1
175
     1
176
     2
177
     2
271
     2
178
     4
271
     2
340
3B7
  0
DIMSTYLE
105
3DC
102
{ACAD_REACTORS
330
3DD
102
}
330
A
100
AcDbSymbolTableRecord
100
AcDbDimStyleTableRecord
  2
ME10_DIM_13
 70
     0
 41
3.0
 42
0.5
 44
1.0
 73
     0
 74
     0
 77
     1
 78
     8
140
3.0
147
2.0
172
     1
173
     1
174
     1
175
     1
176
     2
177
     2
271
     2
178
     4
271
     2
340
3B7
  0
DIMSTYLE
105
3E7
102
{ACAD_REACTORS
330
3E8
102
}
330
A
100
AcDbSymbolTableRecord
100
AcDbDimStyleTableRecord
  2
ME10_DIM_14
 70
     0
 41
3.0
 42
0.5
 44
1.0
 73
     0
 74
     0
 77
     1
 78
     8
140
3.0
147
2.0
172
     1
173
     1
174
     1
175
     1
176
     2
177
     2
271
     2
178
     4
271
     2
340
3B7
  0
ENDTAB
  0
TABLE
  2
BLOCK_RECORD
  5
1
330
0
100
AcDbSymbolTable
 70
     6
  0
BLOCK_RECORD
  5
1F
330
1
100
AcDbSymbolTableRecord
100
AcDbBlockTableRecord
  2
*Model_Space
340
22
  0
BLOCK_RECORD
  5
1B
330
1
100
AcDbSymbolTableRecord
100
AcDbBlockTableRecord
  2
*Paper_Space
340
1E
  0
BLOCK_RECORD
  5
23
330
1
100
AcDbSymbolTableRecord
100
AcDbBlockTableRecord
  2
*Paper_Space0
340
26
  0
BLOCK_RECORD
  5
3B1
330
1
100
AcDbSymbolTableRecord
100
AcDbBlockTableRecord
  2
*D1
340
0
  0
BLOCK_RECORD
  5
3BD
330
1
100
AcDbSymbolTableRecord
100
AcDbBlockTableRecord
  2
*D2
340
0
  0
BLOCK_RECORD
  5
3C8
330
1
100
AcDbSymbolTableRecord
100
AcDbBlockTableRecord
  2
*D3
340
0
  0
BLOCK_RECORD
  5
3D3
330
1
100
AcDbSymbolTableRecord
100
AcDbBlockTableRecord
  2
*D4
340
0
  0
BLOCK_RECORD
  5
3DE
330
1
100
AcDbSymbolTableRecord
100
AcDbBlockTableRecord
  2
*D5
340
0
  0
ENDTAB
  0
ENDSEC
  0
SECTION
  2
BLOCKS
  0
BLOCK
  5
20
330
1F
100
AcDbEntity
  8
0
100
AcDbBlockBegin
  2
*Model_Space
 70
     0
 10
0.0
 20
0.0
 30
0.0
  3
*Model_Space
  1

  0
ENDBLK
  5
21
330
1F
100
AcDbEntity
  8
0
100
AcDbBlockEnd
  0
BLOCK
  5
1C
330
1B
100
AcDbEntity
 67
     1
  8
0
100
AcDbBlockBegin
  2
*Paper_Space
 70
     0
 10
0.0
 20
0.0
 30
0.0
  3
*Paper_Space
  1

  0
ENDBLK
  5
1D
330
1B
100
AcDbEntity
 67
     1
  8
0
100
AcDbBlockEnd
  0
BLOCK
  5
24
330
23
100
AcDbEntity
  8
0
100
AcDbBlockBegin
  2
*Paper_Space0
 70
     0
 10
0.0
 20
0.0
 30
0.0
  3
*Paper_Space0
  1

  0
ENDBLK
  5
25
330
23
100
AcDbEntity
  8
0
100
AcDbBlockEnd
  0
BLOCK
  5
3B9
330
3B1
100
AcDbEntity
  8
0
100
AcDbBlockBegin
  2
*D1
 70
     1
 10
0.0
 20
0.0
 30
0.0
  3
*D1
  1

  0
LINE
  5
3B2
330
3B1
100
AcDbEntity
  8
1
  6
Continuous
 62
     2
100
AcDbLine
 10
1763.135421919535
 20
-1415.74849430881
 30
0.0
 11
1791.328988815591
 21
-1415.74849430881
 31
0.0
  0
LINE
  5
3B3
330
3B1
100
AcDbEntity
  8
1
  6
Continuous
 62
     2
100
AcDbLine
 10
1763.135421919535
 20
-1396.265986773561
 30
0.0
 11
1763.135421919535
 21
-1416.74849430881
 31
0.0
  0
LINE
  5
3B4
330
3B1
100
AcDbEntity
  8
1
  6
Continuous
 62
     2
100
AcDbLine
 10
1791.328988815591
 20
-1396.265986773561
 30
0.0
 11
1791.328988815591
 21
-1416.74849430881
 31
0.0
  0
SOLID
  5
3B5
330
3B1
100
AcDbEntity
  8
1
 62
     2
100
AcDbTrace
 10
1766.135421919535
 20
-1415.353536816048
 30
0.0
 11
1766.135421919535
 21
-1416.143451801572
 31
0.0
 12
1763.135421919535
 22
-1415.74849430881
 32
0.0
 13
1763.135421919535
 23
-1415.74849430881
 33
0.0
  0
SOLID
  5
3B6
330
3B1
100
AcDbEntity
  8
1
 62
     2
100
AcDbTrace
 10
1788.328988815591
 20
-1416.143451801572
 30
0.0
 11
1788.328988815591
 21
-1415.353536816048
 31
0.0
 12
1791.328988815591
 22
-1415.74849430881
 32
0.0
 13
1791.328988815591
 23
-1415.74849430881
 33
0.0
  0
MTEXT
  5
3B8
330
3B1
100
AcDbEntity
  8
1
 62
     4
100
AcDbMText
 10
1771.682205367563
 20
-1412.84849430881
 30
0.0
 40
3.0
 41
0.0
 71
     7
 72
     1
  1
Pg 21
  7
CONVERTER_12
 11
0.9999999999970619
 21
2.424068405545306E-6
 31
0.0
 73
     1
 44
0.60024009603842
  0
ENDBLK
  5
3BA
330
3B1
100
AcDbEntity
  8
0
100
AcDbBlockEnd
  0
BLOCK
  5
3C4
330
3BD
100
AcDbEntity
  8
0
100
AcDbBlockBegin
  2
*D2
 70
     1
 10
0.0
 20
0.0
 30
0.0
  3
*D2
  1

  0
LINE
  5
3BE
330
3BD
100
AcDbEntity
  8
1
  6
Continuous
 62
     2
100
AcDbLine
 10
1813.7364305744
 20
-1395.765986773561
 30
0.0
 11
1813.7364305744
 21
-1380.765986773561
 31
0.0
  0
LINE
  5
3BF
330
3BD
100
AcDbEntity
  8
1
  6
Continuous
 62
     2
100
AcDbLine
 10
1791.828988815591
 20
-1395.765986773561
 30
0.0
 11
1814.7364305744
 21
-1395.765986773561
 31
0.0
  0
LINE
  5
3C0
330
3BD
100
AcDbEntity
  8
1
  6
Continuous
 62
     2
100
AcDbLine
 10
1792.232205367563
 20
-1380.765986773561
 30
0.0
 11
1814.7364305744
 21
-1380.765986773561
 31
0.0
  0
SOLID
  5
3C1
330
3BD
100
AcDbEntity
  8
1
 62
     2
100
AcDbTrace
 10
1813.341473081638
 20
-1392.765986773561
 30
0.0
 11
1814.131388067162
 21
-1392.765986773561
 31
0.0
 12
1813.7364305744
 22
-1395.765986773561
 32
0.0
 13
1813.7364305744
 23
-1395.765986773561
 33
0.0
  0
SOLID
  5
3C2
330
3BD
100
AcDbEntity
  8
1
 62
     2
100
AcDbTrace
 10
1814.131388067162
 20
-1383.765986773561
 30
0.0
 11
1813.341473081638
 21
-1383.765986773561
 31
0.0
 12
1813.7364305744
 22
-1380.765986773561
 32
0.0
 13
1813.7364305744
 23
-1380.765986773561
 33
0.0
  0
MTEXT
  5
3C3
330
3BD
100
AcDbEntity
  8
1
 62
     4
100
AcDbMText
 10
1811.7364305744
 20
-1390.065986773561
 30
0.0
 40
3.0
 41
0.0
 71
     7
 72
     1
  1
15
  7
CONVERTER_12
 11
0.0
 21
1.0
 31
0.0
 73
     1
 44
0.60024009603842
  0
ENDBLK
  5
3C5
330
3BD
100
AcDbEntity
  8
0
100
AcDbBlockEnd
  0
BLOCK
  5
3CF
330
3C8
100
AcDbEntity
  8
0
100
AcDbBlockBegin
  2
*D3
 70
     1
 10
0.0
 20
0.0
 30
0.0
  3
*D3
  1

  0
LINE
  5
3C9
330
3C8
100
AcDbEntity
  8
1
  6
Continuous
 62
     2
100
AcDbLine
 10
1676.053120723017
 20
-1415.74849430881
 30
0.0
 11
1658.272707852168
 21
-1415.74849430881
 31
0.0
  0
LINE
  5
3CA
330
3C8
100
AcDbEntity
  8
1
  6
Continuous
 62
     2
100
AcDbLine
 10
1676.053120723017
 20
-1355.265986773561
 30
0.0
 11
1676.053120723017
 21
-1416.74849430881
 31
0.0
  0
LINE
  5
3CB
330
3C8
100
AcDbEntity
  8
1
  6
Continuous
 62
     2
100
AcDbLine
 10
1658.272707852168
 20
-1331.015986773561
 30
0.0
 11
1658.272707852168
 21
-1416.74849430881
 31
0.0
  0
SOLID
  5
3CC
330
3C8
100
AcDbEntity
  8
1
 62
     2
100
AcDbTrace
 10
1673.053120723017
 20
-1416.143451801572
 30
0.0
 11
1673.053120723017
 21
-1415.353536816048
 31
0.0
 12
1676.053120723017
 22
-1415.74849430881
 32
0.0
 13
1676.053120723017
 23
-1415.74849430881
 33
0.0
  0
SOLID
  5
3CD
330
3C8
100
AcDbEntity
  8
1
 62
     2
100
AcDbTrace
 10
1661.272707852168
 20
-1415.353536816048
 30
0.0
 11
1661.272707852168
 21
-1416.143451801572
 31
0.0
 12
1658.272707852168
 22
-1415.74849430881
 32
0.0
 13
1658.272707852168
 23
-1415.74849430881
 33
0.0
  0
MTEXT
  5
3CE
330
3C8
100
AcDbEntity
  8
1
 62
     4
100
AcDbMText
 10
1665.362914287593
 20
-1413.74849430881
 30
0.0
 40
3.0
 41
0.0
 71
     7
 72
     1
  1
18
  7
CONVERTER_12
 11
0.9999999999970619
 21
2.424068405545306E-6
 31
0.0
 73
     1
 44
0.60024009603842
  0
ENDBLK
  5
3D0
330
3C8
100
AcDbEntity
  8
0
100
AcDbBlockEnd
  0
BLOCK
  5
3DA
330
3D3
100
AcDbEntity
  8
0
100
AcDbBlockBegin
  2
*D4
 70
     1
 10
0.0
 20
0.0
 30
0.0
  3
*D4
  1

  0
LINE
  5
3D4
330
3D3
100
AcDbEntity
  8
1
  6
Continuous
 62
     2
100
AcDbLine
 10
1722.053120723017
 20
-1415.74849430881
 30
0.0
 11
1676.053120723017
 21
-1415.74849430881
 31
0.0
  0
LINE
  5
3D5
330
3D3
100
AcDbEntity
  8
1
  6
Continuous
 62
     2
100
AcDbLine
 10
1722.053120723017
 20
-1355.765986773561
 30
0.0
 11
1722.053120723017
 21
-1416.74849430881
 31
0.0
  0
LINE
  5
3D6
330
3D3
100
AcDbEntity
  8
1
  6
Continuous
 62
     2
100
AcDbLine
 10
1676.053120723017
 20
-1355.265986773561
 30
0.0
 11
1676.053120723017
 21
-1416.74849430881
 31
0.0
  0
SOLID
  5
3D7
330
3D3
100
AcDbEntity
  8
1
 62
     2
100
AcDbTrace
 10
1719.053120723017
 20
-1416.143451801572
 30
0.0
 11
1719.053120723017
 21
-1415.353536816048
 31
0.0
 12
1722.053120723017
 22
-1415.74849430881
 32
0.0
 13
1722.053120723017
 23
-1415.74849430881
 33
0.0
  0
SOLID
  5
3D8
330
3D3
100
AcDbEntity
  8
1
 62
     2
100
AcDbTrace
 10
1679.053120723017
 20
-1415.353536816048
 30
0.0
 11
1679.053120723017
 21
-1416.143451801572
 31
0.0
 12
1676.053120723017
 22
-1415.74849430881
 32
0.0
 13
1676.053120723017
 23
-1415.74849430881
 33
0.0
  0
MTEXT
  5
3D9
330
3D3
100
AcDbEntity
  8
1
 62
     4
100
AcDbMText
 10
1696.803120723017
 20
-1413.74849430881
 30
0.0
 40
3.0
 41
0.0
 71
     7
 72
     1
  1
46
  7
CONVERTER_12
 11
0.9999999999970619
 21
2.424068405545306E-6
 31
0.0
 73
     1
 44
0.60024009603842
  0
ENDBLK
  5
3DB
330
3D3
100
AcDbEntity
  8
0
100
AcDbBlockEnd
  0
BLOCK
  5
3E5
330
3DE
100
AcDbEntity
  8
0
100
AcDbBlockBegin
  2
*D5
 70
     1
 10
0.0
 20
0.0
 30
0.0
  3
*D5
  1

  0
LINE
  5
3DF
330
3DE
100
AcDbEntity
  8
1
  6
Continuous
 62
     2
100
AcDbLine
 10
1813.8864305744
 20
-1330.515986773561
 30
0.0
 11
1813.8864305744
 21
-1380.765986773561
 31
0.0
  0
LINE
  5
3E0
330
3DE
100
AcDbEntity
  8
1
  6
Continuous
 62
     2
100
AcDbLine
 10
1791.107205367563
 20
-1330.515986773561
 30
0.0
 11
1814.8864305744
 21
-1330.515986773561
 31
0.0
  0
LINE
  5
3E1
330
3DE
100
AcDbEntity
  8
1
  6
Continuous
 62
     2
100
AcDbLine
 10
1792.232205367563
 20
-1380.765986773561
 30
0.0
 11
1814.8864305744
 21
-1380.765986773561
 31
0.0
  0
SOLID
  5
3E2
330
3DE
100
AcDbEntity
  8
1
 62
     2
100
AcDbTrace
 10
1814.281388067162
 20
-1333.515986773561
 30
0.0
 11
1813.491473081638
 21
-1333.515986773561
 31
0.0
 12
1813.8864305744
 22
-1330.515986773561
 32
0.0
 13
1813.8864305744
 23
-1330.515986773561
 33
0.0
  0
SOLID
  5
3E3
330
3DE
100
AcDbEntity
  8
1
 62
     2
100
AcDbTrace
 10
1813.491473081638
 20
-1377.765986773561
 30
0.0
 11
1814.281388067162
 21
-1377.765986773561
 31
0.0
 12
1813.8864305744
 22
-1380.765986773561
 32
0.0
 13
1813.8864305744
 23
-1380.765986773561
 33
0.0
  0
MTEXT
  5
3E4
330
3DE
100
AcDbEntity
  8
1
 62
     4
100
AcDbMText
 10
1811.5864305744
 20
-1359.765986773561
 30
0.0
 40
3.0
 41
0.0
 71
     7
 72
     1
  1
50,5
  7
CONVERTER_12
 11
0.0
 21
1.0
 31
0.0
 73
     1
 44
0.60024009603842
  0
ENDBLK
  5
3E6
330
3DE
100
AcDbEntity
  8
0
100
AcDbBlockEnd
  0
ENDSEC
  0
SECTION
  2
ENTITIES
  0
LINE
  5
47
330
1F
100
AcDbEntity
  8
1
  6
Continuous
 62
     7
100
AcDbLine
 10
1713.153120723017
 20
-1395.765986773561
 30
0.0
 11
1684.953120723018
 21
-1395.765986773561
 31
0.0
  0
LINE
  5
48
330
1F
100
AcDbEntity
  8
1
  6
Continuous
 62
     7
100
AcDbLine
 10
1791.328988815591
 20
-1395.765986773561
 30
0.0
 11
1763.135421919535
 21
-1395.765986773561
 31
0.0
  0
LINE
  5
49
330
1F
100
AcDbEntity
  8
1
  6
Continuous
 62
     7
100
AcDbLine
 10
1644.00296059488
 20
-1511.59076759915
 30
0.0
 11
1828.00296059488
 21
-1511.59076759915
 31
0.0
  0
LINE
  5
4A
330
1F
100
AcDbEntity
  8
1
  6
Continuous
 62
     7
100
AcDbLine
 10
1644.00296059488
 20
-1526.59076759915
 30
0.0
 11
1828.00296059488
 21
-1526.59076759915
 31
0.0
  0
LINE
  5
4B
330
1F
100
AcDbEntity
  8
1
  6
Continuous
 62
     7
100
AcDbLine
 10
1669.00296059488
 20
-1496.59076759915
 30
0.0
 11
1669.00296059488
 21
-1491.59076759915
 31
0.0
  0
LINE
  5
4C
330
1F
100
AcDbEntity
  8
1
  6
Continuous
 62
     7
100
AcDbLine
 10
1651.00296059488
 20
-1496.59076759915
 30
0.0
 11
1651.00296059488
 21
-1491.59076759915
 31
0.0
  0
LINE
  5
4D
330
1F
100
AcDbEntity
  8
1
  6
Continuous
 62
     7
100
AcDbLine
 10
1644.00296059488
 20
-1491.59076759915
 30
0.0
 11
1828.00296059488
 21
-1491.59076759915
 31
0.0
  0
LINE
  5
4E
330
1F
100
AcDbEntity
  8
1
  6
Continuous
 62
     7
100
AcDbLine
 10
1669.00296059488
 20
-1501.59076759915
 30
0.0
 11
1669.00296059488
 21
-1496.59076759915
 31
0.0
  0
LINE
  5
4F
330
1F
100
AcDbEntity
  8
1
  6
Continuous
 62
     7
100
AcDbLine
 10
1651.00296059488
 20
-1501.59076759915
 30
0.0
 11
1651.00296059488
 21
-1496.59076759915
 31
0.0
  0
LINE
  5
50
330
1F
100
AcDbEntity
  8
1
  6
Continuous
 62
     7
100
AcDbLine
 10
1644.00296059488
 20
-1496.59076759915
 30
0.0
 11
1828.00296059488
 21
-1496.59076759915
 31
0.0
  0
LINE
  5
51
330
1F
100
AcDbEntity
  8
1
  6
Continuous
 62
     7
100
AcDbLine
 10
1669.00296059488
 20
-1506.59076759915
 30
0.0
 11
1669.00296059488
 21
-1501.59076759915
 31
0.0
  0
LINE
  5
52
330
1F
100
AcDbEntity
  8
1
  6
Continuous
 62
     7
100
AcDbLine
 10
1651.00296059488
 20
-1506.59076759915
 30
0.0
 11
1651.00296059488
 21
-1501.59076759915
 31
0.0
  0
LINE
  5
53
330
1F
100
AcDbEntity
  8
1
  6
Continuous
 62
     7
100
AcDbLine
 10
1644.00296059488
 20
-1501.59076759915
 30
0.0
 11
1828.00296059488
 21
-1501.59076759915
 31
0.0
  0
LINE
  5
54
330
1F
100
AcDbEntity
  8
1
  6
Continuous
 62
     7
100
AcDbLine
 10
1669.00296059488
 20
-1511.59076759915
 30
0.0
 11
1669.00296059488
 21
-1506.59076759915
 31
0.0
  0
LINE
  5
55
330
1F
100
AcDbEntity
  8
1
  6
Continuous
 62
     7
100
AcDbLine
 10
1651.00296059488
 20
-1511.59076759915
 30
0.0
 11
1651.00296059488
 21
-1506.59076759915
 31
0.0
  0
LINE
  5
56
330
1F
100
AcDbEntity
  8
1
  6
Continuous
 62
     7
100
AcDbLine
 10
1644.00296059488
 20
-1506.59076759915
 30
0.0
 11
1828.00296059488
 21
-1506.59076759915
 31
0.0
  0
LINE
  5
57
102
{ACAD_REACTORS
330
3E9
102
}
330
1F
100
AcDbEntity
  8
1
  6
Continuous
 62
     7
100
AcDbLine
 10
1818.845835434786
 20
-1521.03276551877
 30
0.0
 11
1817.512502101453
 21
-1521.801996288
 31
0.0
  0
LINE
  5
58
102
{ACAD_REACTORS
330
3E9
102
}
330
1F
100
AcDbEntity
  8
1
  6
Continuous
 62
     7
100
AcDbLine
 10
1817.679261283623
 20
-1520.936131066502
 30
0.0
 11
1818.51268713246
 21
-1520.455308461404
 31
0.0
  0
LINE
  5
59
102
{ACAD_REACTORS
330
3E9
102
}
330
1F
100
AcDbEntity
  8
1
  6
Continuous
 62
     7
100
AcDbLine
 10
1817.679261283623
 20
-1519.424100932483
 30
0.0
 11
1817.679261283623
 21
-1520.936131066502
 31
0.0
  0
LINE
  5
5A
102
{ACAD_REACTORS
330
3E9
102
}
330
1F
100
AcDbEntity
  8
1
  6
Continuous
 62
     7
100
AcDbLine
 10
1818.679261283623
 20
-1519.424100932483
 30
0.0
 11
1817.679261283623
 21
-1519.424100932483
 31
0.0
  0
LINE
  5
5B
102
{ACAD_REACTORS
330
3E9
102
}
330
1F
100
AcDbEntity
  8
1
  6
Continuous
 62
     7
100
AcDbLine
 10
1817.679261283623
 20
-1518.757434265817
 30
0.0
 11
1818.679261283623
 21
-1518.757434265817
 31
0.0
  0
LINE
  5
5C
102
{ACAD_REACTORS
330
3E9
102
}
330
1F
100
AcDbEntity
  8
1
  6
Continuous
 62
     7
100
AcDbLine
 10
1817.679261283623
 20
-1517.245404131798
 30
0.0
 11
1817.679261283623
 21
-1518.757434265817
 31
0.0
  0
LINE
  5
5D
102
{ACAD_REACTORS
330
3E9
102
}
330
1F
100
AcDbEntity
  8
1
  6
Continuous
 62
     7
100
AcDbLine
 10
1818.51268713246
 20
-1517.726226736896
 30
0.0
 11
1817.679261283623
 21
-1517.245404131798
 31
0.0
  0
LINE
  5
5E
102
{ACAD_REACTORS
330
3E9
102
}
330
1F
100
AcDbEntity
  8
1
  6
Continuous
 62
     7
100
AcDbLine
 10
1817.512502101453
 20
-1516.3795389103
 30
0.0
 11
1818.845835434786
 21
-1517.148769679531
 31
0.0
  0
LINE
  5
5F
102
{ACAD_REACTORS
330
3EA
102
}
330
1F
100
AcDbEntity
  8
1
  6
Continuous
 62
     7
100
AcDbLine
 10
1810.345927950289
 20
-1520.744036990087
 30
0.0
 11
1810.345927950289
 21
-1517.437498208213
 31
0.0
  0
LINE
  5
60
102
{ACAD_REACTORS
330
3EA
102
}
330
1F
100
AcDbEntity
  8
1
  6
Continuous
 62
     7
100
AcDbLine
 10
1811.012594616956
 20
-1520.551515681887
 30
0.0
 11
1811.012594616956
 21
-1520.744036990087
 31
0.0
  0
LINE
  5
61
102
{ACAD_REACTORS
330
3EA
102
}
330
1F
100
AcDbEntity
  8
1
  6
Continuous
 62
     7
100
AcDbLine
 10
1811.012594616956
 20
-1517.437498208213
 30
0.0
 11
1811.012594616956
 21
-1520.551515681887
 31
0.0
  0
LINE
  5
62
102
{ACAD_REACTORS
330
3EB
102
}
330
1F
100
AcDbEntity
  8
1
  6
Continuous
 62
     7
100
AcDbLine
 10
1814.179353799126
 20
-1523.148150134154
 30
0.0
 11
1812.012779647963
 21
-1521.898203508483
 31
0.0
  0
LINE
  5
63
102
{ACAD_REACTORS
330
3EB
102
}
330
1F
100
AcDbEntity
  8
1
  6
Continuous
 62
     7
100
AcDbLine
 10
1812.345927950289
 20
-1521.320746451117
 30
0.0
 11
1814.512502101453
 21
-1522.570693076788
 31
0.0
  0
LINE
  5
64
102
{ACAD_REACTORS
330
3EB
102
}
330
1F
100
AcDbEntity
  8
1
  6
Continuous
 62
     7
100
AcDbLine
 10
1812.345927950289
 20
-1516.668267438983
 30
0.0
 11
1812.345927950289
 21
-1521.320746451117
 31
0.0
  0
LINE
  5
65
102
{ACAD_REACTORS
330
3EB
102
}
330
1F
100
AcDbEntity
  8
1
  6
Continuous
 62
     7
100
AcDbLine
 10
1811.679261283623
 20
-1521.320746451117
 30
0.0
 11
1811.679261283623
 21
-1516.668267438983
 31
0.0
  0
LINE
  5
66
102
{ACAD_REACTORS
330
3EC
102
}
330
1F
100
AcDbEntity
  8
1
  6
Continuous
 62
     7
100
AcDbLine
 10
1815.851494266666
 20
-1515.727067180878
 30
0.0
 11
1814.679261283623
 21
-1517.757434265817
 31
0.0
  0
LINE
  5
67
102
{ACAD_REACTORS
330
3EC
102
}
330
1F
100
AcDbEntity
  8
1
  6
Continuous
 62
     7
100
AcDbLine
 10
1816.345927950289
 20
-1522.282498528548
 30
0.0
 11
1816.345927950289
 21
-1515.859550287116
 31
0.0
  0
LINE
  5
68
102
{ACAD_REACTORS
330
3EC
102
}
330
1F
100
AcDbEntity
  8
1
  6
Continuous
 62
     7
100
AcDbLine
 10
1815.679261283623
 20
-1519.09076759915
 30
0.0
 11
1815.679261283623
 21
-1522.282498528548
 31
0.0
  0
LINE
  5
69
102
{ACAD_REACTORS
330
3EC
102
}
330
1F
100
AcDbEntity
  8
1
  6
Continuous
 62
     7
100
AcDbLine
 10
1813.679261283623
 20
-1520.743182526517
 30
0.0
 11
1813.679261283623
 21
-1519.09076759915
 31
0.0
  0
LINE
  5
6A
102
{ACAD_REACTORS
330
3EC
102
}
330
1F
100
AcDbEntity
  8
1
  6
Continuous
 62
     7
100
AcDbLine
 10
1813.012594616956
 20
-1519.09076759915
 30
0.0
 11
1813.012594616956
 21
-1520.743182526517
 31
0.0
  0
LINE
  5
6B
102
{ACAD_REACTORS
330
3EC
102
}
330
1F
100
AcDbEntity
  8
1
  6
Continuous
 62
     7
100
AcDbLine
 10
1813.507028300579
 20
-1515.727067180878
 30
0.0
 11
1814.679261283623
 21
-1517.757434265817
 31
0.0
  0
LINE
  5
6C
102
{ACAD_REACTORS
330
3EC
102
}
330
1F
100
AcDbEntity
  8
1
  6
Continuous
 62
     7
100
AcDbLine
 10
1813.012594616956
 20
-1519.09076759915
 30
0.0
 11
1813.012594616956
 21
-1515.859550287116
 31
0.0
  0
LINE
  5
6D
330
1F
100
AcDbEntity
  8
1
  6
Continuous
 62
     7
100
AcDbLine
 10
1814.679261283623
 20
-1524.09076759915
 30
0.0
 11
1806.262826008481
 21
-1519.235131863492
 31
0.0
  0
LINE
  5
6E
330
1F
100
AcDbEntity
  8
1
  6
Continuous
 62
     7
100
AcDbLine
 10
1823.095696558764
 20
-1519.235131863492
 30
0.0
 11
1814.679261283623
 21
-1524.09076759915
 31
0.0
  0
LINE
  5
6F
330
1F
100
AcDbEntity
  8
1
  6
Continuous
 62
     7
100
AcDbLine
 10
1814.679261283623
 20
-1514.09076759915
 30
0.0
 11
1823.095696558764
 21
-1518.946403334809
 31
0.0
  0
LINE
  5
70
330
1F
100
AcDbEntity
  8
1
  6
Continuous
 62
     7
100
AcDbLine
 10
1806.262826008481
 20
-1518.946403334809
 30
0.0
 11
1814.679261283623
 21
-1514.09076759915
 31
0.0
  0
LINE
  5
71
102
{ACAD_REACTORS
330
3EC
102
}
330
1F
100
AcDbEntity
  8
1
  6
Continuous
 62
     7
100
AcDbLine
 10
1813.679261283623
 20
-1517.358716791581
 30
0.0
 11
1813.679261283623
 21
-1519.09076759915
 31
0.0
  0
LINE
  5
72
102
{ACAD_REACTORS
330
3EC
102
}
330
1F
100
AcDbEntity
  8
1
  6
Continuous
 62
     7
100
AcDbLine
 10
1814.534923716325
 20
-1518.84076759915
 30
0.0
 11
1813.679261283623
 21
-1517.358716791581
 31
0.0
  0
LINE
  5
73
102
{ACAD_REACTORS
330
3EC
102
}
330
1F
100
AcDbEntity
  8
1
  6
Continuous
 62
     7
100
AcDbLine
 10
1815.679261283623
 20
-1517.358716791581
 30
0.0
 11
1814.82359885092
 21
-1518.84076759915
 31
0.0
  0
LINE
  5
74
102
{ACAD_REACTORS
330
3EC
102
}
330
1F
100
AcDbEntity
  8
1
  6
Continuous
 62
     7
100
AcDbLine
 10
1815.679261283623
 20
-1519.09076759915
 30
0.0
 11
1815.679261283623
 21
-1517.358716791581
 31
0.0
  0
LINE
  5
75
102
{ACAD_REACTORS
330
3E9
102
}
330
1F
100
AcDbEntity
  8
1
  6
Continuous
 62
     7
100
AcDbLine
 10
1817.012594616956
 20
-1521.513267759317
 30
0.0
 11
1817.012594616956
 21
-1516.668267438983
 31
0.0
  0
LINE
  5
76
330
1F
100
AcDbEntity
  8
1
  6
Continuous
 62
     7
100
AcDbLine
 10
1644.00296059488
 20
-1239.59076759915
 30
0.0
 11
1644.00296059488
 21
-1526.59076759915
 31
0.0
  0
LINE
  5
77
330
1F
100
AcDbEntity
  8
1
  6
Continuous
 62
     7
100
AcDbLine
 10
1828.00296059488
 20
-1239.59076759915
 30
0.0
 11
1644.00296059488
 21
-1239.59076759915
 31
0.0
  0
LINE
  5
78
330
1F
100
AcDbEntity
  8
1
  6
Continuous
 62
     7
100
AcDbLine
 10
1828.00296059488
 20
-1526.59076759915
 30
0.0
 11
1828.00296059488
 21
-1239.59076759915
 31
0.0
  0
LINE
  5
79
330
1F
100
AcDbEntity
  8
1
  6
Continuous
 62
     7
100
AcDbLine
 10
1833.00296059488
 20
-1234.59076759915
 30
0.0
 11
1623.00296059488
 21
-1234.59076759915
 31
0.0
  0
LINE
  5
7A
330
1F
100
AcDbEntity
  8
1
  6
Continuous
 62
     7
100
AcDbLine
 10
1623.00296059488
 20
-1234.59076759915
 30
0.0
 11
1623.00296059488
 21
-1531.59076759915
 31
0.0
  0
LINE
  5
7B
330
1F
100
AcDbEntity
  8
1
  6
Continuous
 62
     7
100
AcDbLine
 10
1623.00296059488
 20
-1531.59076759915
 30
0.0
 11
1833.00296059488
 21
-1531.59076759915
 31
0.0
  0
LINE
  5
7C
330
1F
100
AcDbEntity
  8
1
  6
Continuous
 62
     7
100
AcDbLine
 10
1833.00296059488
 20
-1531.59076759915
 30
0.0
 11
1833.00296059488
 21
-1234.59076759915
 31
0.0
  0
LINE
  5
7D
330
1F
100
AcDbEntity
  8
1
  6
Continuous
 62
     7
100
AcDbLine
 10
1623.00296059488
 20
-1383.09076759915
 30
0.0
 11
1638.00296059488
 21
-1383.09076759915
 31
0.0
  0
LINE
  5
7E
330
1F
100
AcDbEntity
  8
1
  6
Continuous
 62
     7
100
AcDbLine
 10
1644.00296059488
 20
-1519.09076759915
 30
0.0
 11
1674.00296059488
 21
-1519.09076759915
 31
0.0
  0
LINE
  5
7F
330
1F
100
AcDbEntity
  8
1
  6
Continuous
 62
     7
100
AcDbLine
 10
1674.00296059488
 20
-1511.59076759915
 30
0.0
 11
1674.00296059488
 21
-1526.59076759915
 31
0.0
  0
LINE
  5
80
330
1F
100
AcDbEntity
  8
1
  6
Continuous
 62
     7
100
AcDbLine
 10
1801.355561972365
 20
-1511.59076759915
 30
0.0
 11
1801.355561972365
 21
-1526.59076759915
 31
0.0
  0
LINE
  5
81
330
1F
100
AcDbEntity
  8
1
  6
Continuous
 62
     7
100
AcDbLine
 10
1784.00296059488
 20
-1511.59076759915
 30
0.0
 11
1784.00296059488
 21
-1526.59076759915
 31
0.0
  0
LINE
  5
82
330
1F
100
AcDbEntity
  8
1
  6
Continuous
 62
     7
100
AcDbLine
 10
1644.00296059488
 20
-1511.59076759915
 30
0.0
 11
1644.00296059488
 21
-1526.59076759915
 31
0.0
  0
LINE
  5
83
330
1F
100
AcDbEntity
  8
0
  6
Continuous
 62
     7
100
AcDbLine
 10
1712.206868370497
 20
-1382.265986773561
 30
0.0
 11
1685.899373075536
 21
-1382.265986773561
 31
0.0
  0
LINE
  5
84
330
1F
100
AcDbEntity
  8
0
  6
Continuous
 62
     7
100
AcDbLine
 10
1685.899373075536
 20
-1380.765986773561
 30
0.0
 11
1685.899373075536
 21
-1382.265986773561
 31
0.0
  0
LINE
  5
85
330
1F
100
AcDbEntity
  8
0
  6
Continuous
 62
     7
100
AcDbLine
 10
1713.153120723017
 20
-1382.265986773561
 30
0.0
 11
1712.206868370497
 21
-1382.265986773561
 31
0.0
  0
LINE
  5
86
330
1F
100
AcDbEntity
  8
0
  6
Continuous
 62
     7
100
AcDbLine
 10
1712.206868370497
 20
-1380.765986773561
 30
0.0
 11
1712.206868370497
 21
-1382.265986773561
 31
0.0
  0
LINE
  5
87
330
1F
100
AcDbEntity
  8
0
  6
Continuous
 62
     7
100
AcDbLine
 10
1685.899373075536
 20
-1382.265986773561
 30
0.0
 11
1684.953120723017
 21
-1382.265986773561
 31
0.0
  0
LINE
  5
88
330
1F
100
AcDbEntity
  8
1
  6
Continuous
 62
     7
100
AcDbLine
 10
1684.953120723017
 20
-1382.265986773561
 30
0.0
 11
1684.953120723018
 21
-1395.765986773561
 31
0.0
  0
LINE
  5
89
330
1F
100
AcDbEntity
  8
1
  6
Continuous
 62
     2
100
AcDbLine
 10
1685.899373075537
 20
-1395.765986773561
 30
0.0
 11
1685.899373075536
 21
-1382.265986773561
 31
0.0
  0
LINE
  5
8A
330
1F
100
AcDbEntity
  8
1
  6
Continuous
 62
     2
100
AcDbLine
 10
1712.206868370497
 20
-1395.765986773561
 30
0.0
 11
1712.206868370497
 21
-1382.265986773561
 31
0.0
  0
LINE
  5
8B
330
1F
100
AcDbEntity
  8
1
  6
Continuous
 62
     7
100
AcDbLine
 10
1713.153120723017
 20
-1395.765986773561
 30
0.0
 11
1713.153120723017
 21
-1382.27138560551
 31
0.0
  0
LINE
  5
8C
330
1F
100
AcDbEntity
  8
0
  6
Continuous
 62
     7
100
AcDbLine
 10
1764.078457720083
 20
-1382.265986773561
 30
0.0
 11
1763.132205367563
 21
-1382.265986773561
 31
0.0
  0
LINE
  5
8D
330
1F
100
AcDbEntity
  8
0
  6
Continuous
 62
     7
100
AcDbLine
 10
1764.078457720083
 20
-1382.265986773561
 30
0.0
 11
1764.078457720083
 21
-1380.765986773561
 31
0.0
  0
LINE
  5
8E
330
1F
100
AcDbEntity
  8
0
  6
Continuous
 62
     7
100
AcDbLine
 10
1777.232205367564
 20
-1382.265986773561
 30
0.0
 11
1764.078457720083
 21
-1382.265986773561
 31
0.0
  0
LINE
  5
8F
330
1F
100
AcDbEntity
  8
0
  6
Continuous
 62
     7
100
AcDbLine
 10
1777.232205367564
 20
-1382.265986773561
 30
0.0
 11
1790.385953015044
 21
-1382.265986773561
 31
0.0
  0
LINE
  5
90
330
1F
100
AcDbEntity
  8
0
  6
Continuous
 62
     7
100
AcDbLine
 10
1790.385953015044
 20
-1382.265986773561
 30
0.0
 11
1790.385953015044
 21
-1380.765986773561
 31
0.0
  0
LINE
  5
91
330
1F
100
AcDbEntity
  8
1
  6
Continuous
 62
     7
100
AcDbLine
 10
1763.135421919535
 20
-1395.765986773561
 30
0.0
 11
1763.135421919535
 21
-1382.265986773561
 31
0.0
  0
LINE
  5
92
330
1F
100
AcDbEntity
  8
1
  6
Continuous
 62
     7
100
AcDbLine
 10
1791.328988815591
 20
-1382.265986773561
 30
0.0
 11
1790.385953015044
 21
-1382.265986773561
 31
0.0
  0
LINE
  5
93
330
1F
100
AcDbEntity
  8
1
  6
Continuous
 62
     7
100
AcDbLine
 10
1791.328988815591
 20
-1382.265986773561
 30
0.0
 11
1791.328988815591
 21
-1395.765986773561
 31
0.0
  0
LINE
  5
94
330
1F
100
AcDbEntity
  8
1
  6
Continuous
 62
     2
100
AcDbLine
 10
1790.385953015044
 20
-1382.265986773561
 30
0.0
 11
1790.385953015044
 21
-1395.765986773561
 31
0.0
  0
LINE
  5
95
330
1F
100
AcDbEntity
  8
1
  6
Continuous
 62
     2
100
AcDbLine
 10
1764.078457720083
 20
-1382.265986773561
 30
0.0
 11
1764.078457720083
 21
-1395.765986773561
 31
0.0
  0
LINE
  5
96
330
1F
100
AcDbEntity
  8
0
  6
Continuous
 62
     7
100
AcDbLine
 10
1760.232205367563
 20
-1335.265986773561
 30
0.0
 11
1760.232205367563
 21
-1333.265986773561
 31
0.0
  0
LINE
  5
97
330
1F
100
AcDbEntity
  8
0
  6
Continuous
 62
     2
100
AcDbLine
 10
1784.207205367563
 20
-1345.965986773561
 30
0.0
 11
1778.732205367563
 21
-1345.965986773561
 31
0.0
  0
LINE
  5
98
330
1F
100
AcDbEntity
  8
0
  6
Continuous
 62
     2
100
AcDbLine
 10
1784.207205367563
 20
-1345.599229456174
 30
0.0
 11
1784.207205367563
 21
-1345.965986773561
 31
0.0
  0
LINE
  5
99
330
1F
100
AcDbEntity
  8
0
  6
Continuous
 62
     2
100
AcDbLine
 10
1784.207205367563
 20
-1345.965986773561
 30
0.0
 11
1790.607205367563
 21
-1345.965986773561
 31
0.0
  0
LINE
  5
9A
330
1F
100
AcDbEntity
  8
0
  6
Continuous
 62
     2
100
AcDbLine
 10
1778.732205367563
 20
-1344.532744090948
 30
0.0
 11
1778.732205367563
 21
-1343.799229456174
 31
0.0
  0
LINE
  5
9B
330
1F
100
AcDbEntity
  8
0
  6
Continuous
 62
     2
100
AcDbLine
 10
1778.732205367563
 20
-1344.699229456173
 30
0.0
 11
1778.732205367563
 21
-1344.532744090948
 31
0.0
  0
LINE
  5
9C
330
1F
100
AcDbEntity
  8
0
  6
Continuous
 62
     2
100
AcDbLine
 10
1778.732205367563
 20
-1345.432744090948
 30
0.0
 11
1778.732205367563
 21
-1344.699229456173
 31
0.0
  0
LINE
  5
9D
330
1F
100
AcDbEntity
  8
0
  6
Continuous
 62
     2
100
AcDbLine
 10
1778.732205367563
 20
-1345.965986773561
 30
0.0
 11
1778.732205367563
 21
-1345.432744090948
 31
0.0
  0
LINE
  5
9E
330
1F
100
AcDbEntity
  8
0
  6
Continuous
 62
     7
100
AcDbLine
 10
1790.607205367563
 20
-1345.965986773561
 30
0.0
 11
1790.607205367563
 21
-1354.765986773561
 31
0.0
  0
LINE
  5
9F
330
1F
100
AcDbEntity
  8
0
  6
Continuous
 62
     7
100
AcDbLine
 10
1787.708355769866
 20
-1354.765986773561
 30
0.0
 11
1788.482205367563
 21
-1354.765986773561
 31
0.0
  0
LINE
  5
A0
330
1F
100
AcDbEntity
  8
0
  6
Continuous
 62
     7
100
AcDbLine
 10
1788.482205367563
 20
-1354.765986773561
 30
0.0
 11
1790.607205367563
 21
-1354.765986773561
 31
0.0
  0
LINE
  5
A1
330
1F
100
AcDbEntity
  8
0
  6
Continuous
 62
     7
100
AcDbLine
 10
1790.607205367563
 20
-1354.765986773561
 30
0.0
 11
1790.682205367563
 21
-1354.765986773561
 31
0.0
  0
LINE
  5
A2
330
1F
100
AcDbEntity
  8
0
  6
Continuous
 62
     2
100
AcDbLine
 10
1784.207205367563
 20
-1344.699229456173
 30
0.0
 11
1778.732205367563
 21
-1344.699229456173
 31
0.0
  0
LINE
  5
A3
330
1F
100
AcDbEntity
  8
0
  6
Continuous
 62
     2
100
AcDbLine
 10
1784.207205367563
 20
-1354.765986773561
 30
0.0
 11
1784.207205367563
 21
-1345.965986773561
 31
0.0
  0
LINE
  5
A4
330
1F
100
AcDbEntity
  8
0
  6
Continuous
 62
     2
100
AcDbLine
 10
1784.207205367563
 20
-1344.699229456173
 30
0.0
 11
1784.207205367563
 21
-1345.432744090948
 31
0.0
  0
LINE
  5
A5
330
1F
100
AcDbEntity
  8
0
  6
Continuous
 62
     2
100
AcDbLine
 10
1784.207205367563
 20
-1345.599229456174
 30
0.0
 11
1784.207205367563
 21
-1345.432744090948
 31
0.0
  0
LINE
  5
A6
330
1F
100
AcDbEntity
  8
0
  6
Continuous
 62
     7
100
AcDbLine
 10
1790.447042196266
 20
-1345.599229456174
 30
0.0
 11
1790.26736853886
 21
-1345.432744090948
 31
0.0
  0
LINE
  5
A7
330
1F
100
AcDbEntity
  8
0
  6
Continuous
 62
     2
100
AcDbLine
 10
1784.207205367563
 20
-1345.432744090948
 30
0.0
 11
1790.26736853886
 21
-1345.432744090948
 31
0.0
  0
LINE
  5
A8
330
1F
100
AcDbEntity
  8
0
  6
Continuous
 62
     2
100
AcDbLine
 10
1784.207205367563
 20
-1345.432744090948
 30
0.0
 11
1778.732205367563
 21
-1345.432744090948
 31
0.0
  0
LINE
  5
A9
330
1F
100
AcDbEntity
  8
0
  6
Continuous
 62
     7
100
AcDbLine
 10
1790.447042196266
 20
-1344.532744090948
 30
0.0
 11
1790.26736853886
 21
-1344.699229456173
 31
0.0
  0
LINE
  5
AA
330
1F
100
AcDbEntity
  8
0
  6
Continuous
 62
     2
100
AcDbLine
 10
1784.207205367563
 20
-1344.532744090948
 30
0.0
 11
1784.207205367563
 21
-1344.699229456173
 31
0.0
  0
LINE
  5
AB
330
1F
100
AcDbEntity
  8
0
  6
Continuous
 62
     2
100
AcDbLine
 10
1784.207205367563
 20
-1344.699229456173
 30
0.0
 11
1790.26736853886
 21
-1344.699229456173
 31
0.0
  0
LINE
  5
AC
330
1F
100
AcDbEntity
  8
0
  6
Continuous
 62
     7
100
AcDbLine
 10
1791.482205367563
 20
-1359.765986773561
 30
0.0
 11
1791.482205367563
 21
-1355.565986773561
 31
0.0
  0
LINE
  5
AD
330
1F
100
AcDbEntity
  8
0
  6
Continuous
 62
     2
100
AcDbLine
 10
1786.045991360241
 20
-1355.773042009643
 30
0.0
 11
1788.482205367563
 21
-1355.773042009643
 31
0.0
  0
LINE
  5
AE
330
1F
100
AcDbEntity
  8
0
  6
Continuous
 62
     7
100
AcDbLine
 10
1791.482205367563
 20
-1359.765986773561
 30
0.0
 11
1790.482205367563
 21
-1360.765986773561
 31
0.0
  0
LINE
  5
AF
330
1F
100
AcDbEntity
  8
0
  6
Continuous
 62
     7
100
AcDbLine
 10
1790.447042196266
 20
-1340.932744090948
 30
0.0
 11
1790.26736853886
 21
-1341.099229456174
 31
0.0
  0
LINE
  5
B0
330
1F
100
AcDbEntity
  8
0
  6
Continuous
 62
     2
100
AcDbLine
 10
1784.207205367563
 20
-1341.099229456174
 30
0.0
 11
1790.26736853886
 21
-1341.099229456174
 31
0.0
  0
LINE
  5
B1
330
1F
100
AcDbEntity
  8
0
  6
Continuous
 62
     7
100
AcDbLine
 10
1790.447042196266
 20
-1341.999229456174
 30
0.0
 11
1790.26736853886
 21
-1341.832744090948
 31
0.0
  0
LINE
  5
B2
330
1F
100
AcDbEntity
  8
0
  6
Continuous
 62
     2
100
AcDbLine
 10
1784.207205367563
 20
-1341.832744090948
 30
0.0
 11
1790.26736853886
 21
-1341.832744090948
 31
0.0
  0
LINE
  5
B3
330
1F
100
AcDbEntity
  8
0
  6
Continuous
 62
     2
100
AcDbLine
 10
1784.207205367563
 20
-1343.632744090948
 30
0.0
 11
1778.732205367563
 21
-1343.632744090948
 31
0.0
  0
LINE
  5
B4
330
1F
100
AcDbEntity
  8
0
  6
Continuous
 62
     2
100
AcDbLine
 10
1784.207205367563
 20
-1342.899229456174
 30
0.0
 11
1784.207205367563
 21
-1343.632744090948
 31
0.0
  0
LINE
  5
B5
330
1F
100
AcDbEntity
  8
0
  6
Continuous
 62
     2
100
AcDbLine
 10
1784.207205367563
 20
-1342.899229456174
 30
0.0
 11
1778.732205367563
 21
-1342.899229456174
 31
0.0
  0
LINE
  5
B6
330
1F
100
AcDbEntity
  8
0
  6
Continuous
 62
     2
100
AcDbLine
 10
1784.207205367563
 20
-1342.732744090948
 30
0.0
 11
1784.207205367563
 21
-1341.999229456174
 31
0.0
  0
LINE
  5
B7
330
1F
100
AcDbEntity
  8
0
  6
Continuous
 62
     2
100
AcDbLine
 10
1784.207205367563
 20
-1341.999229456174
 30
0.0
 11
1784.207205367563
 21
-1341.832744090948
 31
0.0
  0
LINE
  5
B8
330
1F
100
AcDbEntity
  8
0
  6
Continuous
 62
     2
100
AcDbLine
 10
1778.732205367563
 20
-1342.899229456174
 30
0.0
 11
1778.732205367563
 21
-1342.732744090948
 31
0.0
  0
LINE
  5
B9
330
1F
100
AcDbEntity
  8
0
  6
Continuous
 62
     2
100
AcDbLine
 10
1778.732205367563
 20
-1343.632744090948
 30
0.0
 11
1778.732205367563
 21
-1342.899229456174
 31
0.0
  0
LINE
  5
BA
330
1F
100
AcDbEntity
  8
0
  6
Continuous
 62
     2
100
AcDbLine
 10
1784.207205367563
 20
-1341.832744090948
 30
0.0
 11
1778.732205367563
 21
-1341.832744090948
 31
0.0
  0
LINE
  5
BB
330
1F
100
AcDbEntity
  8
0
  6
Continuous
 62
     2
100
AcDbLine
 10
1778.732205367563
 20
-1343.799229456174
 30
0.0
 11
1778.732205367563
 21
-1343.632744090948
 31
0.0
  0
LINE
  5
BC
330
1F
100
AcDbEntity
  8
0
  6
Continuous
 62
     2
100
AcDbLine
 10
1778.732205367563
 20
-1341.832744090948
 30
0.0
 11
1778.732205367563
 21
-1341.099229456174
 31
0.0
  0
LINE
  5
BD
330
1F
100
AcDbEntity
  8
0
  6
Continuous
 62
     2
100
AcDbLine
 10
1778.732205367563
 20
-1341.099229456174
 30
0.0
 11
1778.732205367563
 21
-1340.932744090948
 31
0.0
  0
LINE
  5
BE
330
1F
100
AcDbEntity
  8
0
  6
Continuous
 62
     2
100
AcDbLine
 10
1778.732205367563
 20
-1342.732744090948
 30
0.0
 11
1778.732205367563
 21
-1341.999229456174
 31
0.0
  0
LINE
  5
BF
330
1F
100
AcDbEntity
  8
0
  6
Continuous
 62
     2
100
AcDbLine
 10
1778.732205367563
 20
-1341.999229456174
 30
0.0
 11
1778.732205367563
 21
-1341.832744090948
 31
0.0
  0
LINE
  5
C0
330
1F
100
AcDbEntity
  8
0
  6
Continuous
 62
     7
100
AcDbLine
 10
1790.447042196266
 20
-1343.799229456174
 30
0.0
 11
1790.26736853886
 21
-1343.632744090948
 31
0.0
  0
LINE
  5
C1
330
1F
100
AcDbEntity
  8
0
  6
Continuous
 62
     2
100
AcDbLine
 10
1784.207205367563
 20
-1343.632744090948
 30
0.0
 11
1790.26736853886
 21
-1343.632744090948
 31
0.0
  0
LINE
  5
C2
330
1F
100
AcDbEntity
  8
0
  6
Continuous
 62
     2
100
AcDbLine
 10
1784.207205367563
 20
-1341.099229456174
 30
0.0
 11
1784.207205367563
 21
-1341.832744090948
 31
0.0
  0
LINE
  5
C3
330
1F
100
AcDbEntity
  8
0
  6
Continuous
 62
     2
100
AcDbLine
 10
1784.207205367563
 20
-1343.799229456174
 30
0.0
 11
1784.207205367563
 21
-1343.632744090948
 31
0.0
  0
LINE
  5
C4
330
1F
100
AcDbEntity
  8
0
  6
Continuous
 62
     2
100
AcDbLine
 10
1770.257205367563
 20
-1354.765986773561
 30
0.0
 11
1770.257205367563
 21
-1345.965986773561
 31
0.0
  0
LINE
  5
C5
330
1F
100
AcDbEntity
  8
0
  6
Continuous
 62
     2
100
AcDbLine
 10
1770.257205367563
 20
-1345.965986773561
 30
0.0
 11
1770.257205367563
 21
-1345.599229456174
 31
0.0
  0
LINE
  5
C6
330
1F
100
AcDbEntity
  8
0
  6
Continuous
 62
     2
100
AcDbLine
 10
1770.257205367563
 20
-1344.699229456173
 30
0.0
 11
1770.257205367563
 21
-1345.432744090948
 31
0.0
  0
LINE
  5
C7
330
1F
100
AcDbEntity
  8
0
  6
Continuous
 62
     2
100
AcDbLine
 10
1770.257205367563
 20
-1345.599229456174
 30
0.0
 11
1770.257205367563
 21
-1345.432744090948
 31
0.0
  0
LINE
  5
C8
330
1F
100
AcDbEntity
  8
0
  6
Continuous
 62
     2
100
AcDbLine
 10
1770.257205367563
 20
-1344.699229456173
 30
0.0
 11
1770.257205367563
 21
-1344.532744090948
 31
0.0
  0
LINE
  5
C9
330
1F
100
AcDbEntity
  8
0
  6
Continuous
 62
     2
100
AcDbLine
 10
1770.257205367563
 20
-1344.532744090948
 30
0.0
 11
1770.257205367563
 21
-1343.799229456174
 31
0.0
  0
LINE
  5
CA
330
1F
100
AcDbEntity
  8
0
  6
Continuous
 62
     2
100
AcDbLine
 10
1770.257205367563
 20
-1343.799229456174
 30
0.0
 11
1770.257205367563
 21
-1343.632744090948
 31
0.0
  0
LINE
  5
CB
330
1F
100
AcDbEntity
  8
0
  6
Continuous
 62
     2
100
AcDbLine
 10
1770.257205367563
 20
-1339.299229456174
 30
0.0
 11
1770.257205367563
 21
-1340.032744090948
 31
0.0
  0
LINE
  5
CC
330
1F
100
AcDbEntity
  8
0
  6
Continuous
 62
     2
100
AcDbLine
 10
1770.257205367563
 20
-1339.299229456174
 30
0.0
 11
1770.257205367563
 21
-1339.132744090948
 31
0.0
  0
LINE
  5
CD
330
1F
100
AcDbEntity
  8
0
  6
Continuous
 62
     2
100
AcDbLine
 10
1770.257205367563
 20
-1339.132744090948
 30
0.0
 11
1770.257205367563
 21
-1338.765986773561
 31
0.0
  0
LINE
  5
CE
330
1F
100
AcDbEntity
  8
0
  6
Continuous
 62
     2
100
AcDbLine
 10
1770.257205367563
 20
-1342.899229456174
 30
0.0
 11
1770.257205367563
 21
-1343.632744090948
 31
0.0
  0
LINE
  5
CF
330
1F
100
AcDbEntity
  8
0
  6
Continuous
 62
     2
100
AcDbLine
 10
1770.257205367563
 20
-1342.732744090948
 30
0.0
 11
1770.257205367563
 21
-1341.999229456174
 31
0.0
  0
LINE
  5
D0
330
1F
100
AcDbEntity
  8
0
  6
Continuous
 62
     2
100
AcDbLine
 10
1770.257205367563
 20
-1342.899229456174
 30
0.0
 11
1770.257205367563
 21
-1342.732744090948
 31
0.0
  0
LINE
  5
D1
330
1F
100
AcDbEntity
  8
0
  6
Continuous
 62
     7
100
AcDbLine
 10
1764.01736853886
 20
-1343.799229456174
 30
0.0
 11
1764.197042196266
 21
-1343.632744090948
 31
0.0
  0
LINE
  5
D2
330
1F
100
AcDbEntity
  8
0
  6
Continuous
 62
     2
100
AcDbLine
 10
1770.257205367563
 20
-1342.899229456174
 30
0.0
 11
1764.197042196266
 21
-1342.899229456174
 31
0.0
  0
LINE
  5
D3
330
1F
100
AcDbEntity
  8
0
  6
Continuous
 62
     2
100
AcDbLine
 10
1770.257205367563
 20
-1341.832744090948
 30
0.0
 11
1764.197042196266
 21
-1341.832744090948
 31
0.0
  0
LINE
  5
D4
330
1F
100
AcDbEntity
  8
0
  6
Continuous
 62
     2
100
AcDbLine
 10
1784.207205367563
 20
-1341.099229456174
 30
0.0
 11
1778.732205367563
 21
-1341.099229456174
 31
0.0
  0
LINE
  5
D5
330
1F
100
AcDbEntity
  8
0
  6
Continuous
 62
     2
100
AcDbLine
 10
1770.257205367563
 20
-1341.099229456174
 30
0.0
 11
1764.197042196266
 21
-1341.099229456174
 31
0.0
  0
LINE
  5
D6
330
1F
100
AcDbEntity
  8
0
  6
Continuous
 62
     2
100
AcDbLine
 10
1775.732205367563
 20
-1341.099229456174
 30
0.0
 11
1770.257205367563
 21
-1341.099229456174
 31
0.0
  0
LINE
  5
D7
330
1F
100
AcDbEntity
  8
0
  6
Continuous
 62
     2
100
AcDbLine
 10
1775.732205367563
 20
-1341.099229456174
 30
0.0
 11
1775.732205367563
 21
-1341.832744090948
 31
0.0
  0
LINE
  5
D8
330
1F
100
AcDbEntity
  8
0
  6
Continuous
 62
     2
100
AcDbLine
 10
1775.732205367563
 20
-1342.899229456174
 30
0.0
 11
1770.257205367563
 21
-1342.899229456174
 31
0.0
  0
LINE
  5
D9
330
1F
100
AcDbEntity
  8
0
  6
Continuous
 62
     2
100
AcDbLine
 10
1775.732205367563
 20
-1342.732744090948
 30
0.0
 11
1775.732205367563
 21
-1342.899229456174
 31
0.0
  0
LINE
  5
DA
330
1F
100
AcDbEntity
  8
0
  6
Continuous
 62
     2
100
AcDbLine
 10
1770.257205367563
 20
-1343.632744090948
 30
0.0
 11
1764.197042196266
 21
-1343.632744090948
 31
0.0
  0
LINE
  5
DB
330
1F
100
AcDbEntity
  8
0
  6
Continuous
 62
     2
100
AcDbLine
 10
1775.732205367563
 20
-1343.632744090948
 30
0.0
 11
1770.257205367563
 21
-1343.632744090948
 31
0.0
  0
LINE
  5
DC
330
1F
100
AcDbEntity
  8
0
  6
Continuous
 62
     2
100
AcDbLine
 10
1775.732205367563
 20
-1342.899229456174
 30
0.0
 11
1775.732205367563
 21
-1343.632744090948
 31
0.0
  0
LINE
  5
DD
330
1F
100
AcDbEntity
  8
0
  6
Continuous
 62
     2
100
AcDbLine
 10
1775.732205367563
 20
-1343.799229456174
 30
0.0
 11
1775.732205367563
 21
-1344.532744090948
 31
0.0
  0
LINE
  5
DE
330
1F
100
AcDbEntity
  8
0
  6
Continuous
 62
     2
100
AcDbLine
 10
1775.732205367563
 20
-1343.632744090948
 30
0.0
 11
1775.732205367563
 21
-1343.799229456174
 31
0.0
  0
LINE
  5
DF
330
1F
100
AcDbEntity
  8
0
  6
Continuous
 62
     2
100
AcDbLine
 10
1770.257205367563
 20
-1344.699229456173
 30
0.0
 11
1764.197042196266
 21
-1344.699229456173
 31
0.0
  0
LINE
  5
E0
330
1F
100
AcDbEntity
  8
0
  6
Continuous
 62
     2
100
AcDbLine
 10
1775.732205367563
 20
-1344.699229456173
 30
0.0
 11
1770.257205367563
 21
-1344.699229456173
 31
0.0
  0
LINE
  5
E1
330
1F
100
AcDbEntity
  8
0
  6
Continuous
 62
     2
100
AcDbLine
 10
1775.732205367563
 20
-1345.965986773561
 30
0.0
 11
1770.257205367563
 21
-1345.965986773561
 31
0.0
  0
LINE
  5
E2
330
1F
100
AcDbEntity
  8
0
  6
Continuous
 62
     2
100
AcDbLine
 10
1770.257205367563
 20
-1345.432744090948
 30
0.0
 11
1764.197042196266
 21
-1345.432744090948
 31
0.0
  0
LINE
  5
E3
330
1F
100
AcDbEntity
  8
0
  6
Continuous
 62
     2
100
AcDbLine
 10
1775.732205367563
 20
-1345.432744090948
 30
0.0
 11
1770.257205367563
 21
-1345.432744090948
 31
0.0
  0
LINE
  5
E4
330
1F
100
AcDbEntity
  8
0
  6
Continuous
 62
     2
100
AcDbLine
 10
1770.257205367563
 20
-1345.965986773561
 30
0.0
 11
1763.857205367563
 21
-1345.965986773561
 31
0.0
  0
LINE
  5
E5
330
1F
100
AcDbEntity
  8
0
  6
Continuous
 62
     7
100
AcDbLine
 10
1764.01736853886
 20
-1342.732744090948
 30
0.0
 11
1764.197042196266
 21
-1342.899229456174
 31
0.0
  0
LINE
  5
E6
330
1F
100
AcDbEntity
  8
0
  6
Continuous
 62
     7
100
AcDbLine
 10
1764.01736853886
 20
-1345.599229456174
 30
0.0
 11
1764.197042196266
 21
-1345.432744090948
 31
0.0
  0
LINE
  5
E7
330
1F
100
AcDbEntity
  8
0
  6
Continuous
 62
     7
100
AcDbLine
 10
1791.482205367564
 20
-1337.765986773561
 30
0.0
 11
1790.607205367563
 21
-1337.765986773561
 31
0.0
  0
LINE
  5
E8
330
1F
100
AcDbEntity
  8
0
  6
Continuous
 62
     7
100
AcDbLine
 10
1791.482205367564
 20
-1335.913034386317
 30
0.0
 11
1791.482205367564
 21
-1337.26598677356
 31
0.0
  0
LINE
  5
E9
330
1F
100
AcDbEntity
  8
0
  6
Continuous
 62
     7
100
AcDbLine
 10
1791.482205367564
 20
-1337.26598677356
 30
0.0
 11
1791.482205367564
 21
-1337.765986773561
 31
0.0
  0
LINE
  5
EA
330
1F
100
AcDbEntity
  8
0
  6
Continuous
 62
     7
100
AcDbLine
 10
1770.257205367563
 20
-1354.765986773561
 30
0.0
 11
1784.207205367563
 21
-1354.765986773561
 31
0.0
  0
LINE
  5
EB
330
1F
100
AcDbEntity
  8
0
  6
Continuous
 62
     2
100
AcDbLine
 10
1775.732205367563
 20
-1345.432744090948
 30
0.0
 11
1775.732205367563
 21
-1345.965986773561
 31
0.0
  0
LINE
  5
EC
330
1F
100
AcDbEntity
  8
0
  6
Continuous
 62
     2
100
AcDbLine
 10
1775.732205367563
 20
-1344.699229456173
 30
0.0
 11
1775.732205367563
 21
-1345.432744090948
 31
0.0
  0
LINE
  5
ED
330
1F
100
AcDbEntity
  8
0
  6
Continuous
 62
     2
100
AcDbLine
 10
1775.732205367563
 20
-1344.532744090948
 30
0.0
 11
1775.732205367563
 21
-1344.699229456173
 31
0.0
  0
LINE
  5
EE
330
1F
100
AcDbEntity
  8
0
  6
Continuous
 62
     7
100
AcDbLine
 10
1764.078457720083
 20
-1382.265986773561
 30
0.0
 11
1764.078457720083
 21
-1380.765986773561
 31
0.0
  0
LINE
  5
EF
330
1F
100
AcDbEntity
  8
0
  6
Continuous
 62
     7
100
AcDbLine
 10
1763.982205367563
 20
-1360.765986773561
 30
0.0
 11
1762.982205367563
 21
-1359.765986773561
 31
0.0
  0
LINE
  5
F0
330
1F
100
AcDbEntity
  8
0
  6
Continuous
 62
     7
100
AcDbLine
 10
1764.01736853886
 20
-1340.932744090948
 30
0.0
 11
1764.197042196266
 21
-1341.099229456174
 31
0.0
  0
LINE
  5
F1
330
1F
100
AcDbEntity
  8
0
  6
Continuous
 62
     7
100
AcDbLine
 10
1762.982205367563
 20
-1331.765986773561
 30
0.0
 11
1763.857205367563
 21
-1331.765986773561
 31
0.0
  0
LINE
  5
F2
330
1F
100
AcDbEntity
  8
0
  6
Continuous
 62
     7
100
AcDbLine
 10
1762.982205367564
 20
-1333.26598677356
 30
0.0
 11
1762.982205367563
 21
-1331.765986773561
 31
0.0
  0
LINE
  5
F3
330
1F
100
AcDbEntity
  8
0
  6
Continuous
 62
     7
100
AcDbLine
 10
1763.857205367563
 20
-1338.765986773561
 30
0.0
 11
1763.857205367563
 21
-1337.765986773561
 31
0.0
  0
LINE
  5
F4
330
1F
100
AcDbEntity
  8
0
  6
Continuous
 62
     7
100
AcDbLine
 10
1764.01736853886
 20
-1339.132744090948
 30
0.0
 11
1764.197042196266
 21
-1339.299229456174
 31
0.0
  0
LINE
  5
F5
330
1F
100
AcDbEntity
  8
0
  6
Continuous
 62
     7
100
AcDbLine
 10
1763.857205367563
 20
-1337.765986773561
 30
0.0
 11
1762.982205367563
 21
-1337.765986773561
 31
0.0
  0
LINE
  5
F6
330
1F
100
AcDbEntity
  8
0
  6
Continuous
 62
     7
100
AcDbLine
 10
1762.982205367563
 20
-1337.765986773561
 30
0.0
 11
1762.982205367564
 21
-1337.26598677356
 31
0.0
  0
LINE
  5
F7
330
1F
100
AcDbEntity
  8
0
  6
Continuous
 62
     7
100
AcDbLine
 10
1762.982205367563
 20
-1355.565986773561
 30
0.0
 11
1762.982205367563
 21
-1359.765986773561
 31
0.0
  0
LINE
  5
F8
330
1F
100
AcDbEntity
  8
0
  6
Continuous
 62
     7
100
AcDbLine
 10
1763.857205367563
 20
-1354.765986773561
 30
0.0
 11
1765.982205367563
 21
-1354.765986773561
 31
0.0
  0
LINE
  5
F9
330
1F
100
AcDbEntity
  8
0
  6
Continuous
 62
     7
100
AcDbLine
 10
1763.782205367563
 20
-1354.765986773561
 30
0.0
 11
1763.857205367563
 21
-1354.765986773561
 31
0.0
  0
LINE
  5
FA
330
1F
100
AcDbEntity
  8
0
  6
Continuous
 62
     7
100
AcDbLine
 10
1763.857205367563
 20
-1345.965986773561
 30
0.0
 11
1763.857205367563
 21
-1354.765986773561
 31
0.0
  0
LINE
  5
FB
330
1F
100
AcDbEntity
  8
0
  6
Continuous
 62
     7
100
AcDbLine
 10
1764.01736853886
 20
-1341.999229456174
 30
0.0
 11
1764.197042196266
 21
-1341.832744090948
 31
0.0
  0
LINE
  5
FC
330
1F
100
AcDbEntity
  8
0
  6
Continuous
 62
     7
100
AcDbLine
 10
1764.01736853886
 20
-1344.532744090948
 30
0.0
 11
1764.197042196266
 21
-1344.699229456173
 31
0.0
  0
LINE
  5
FD
330
1F
100
AcDbEntity
  8
0
  6
Continuous
 62
     7
100
AcDbLine
 10
1766.75605496526
 20
-1354.765986773561
 30
0.0
 11
1765.982205367563
 21
-1354.765986773561
 31
0.0
  0
LINE
  5
FE
330
1F
100
AcDbEntity
  8
0
  6
Continuous
 62
     7
100
AcDbLine
 10
1765.982205367563
 20
-1380.765986773561
 30
0.0
 11
1764.078457720083
 21
-1380.765986773561
 31
0.0
  0
LINE
  5
FF
330
1F
100
AcDbEntity
  8
0
  6
Continuous
 62
     7
100
AcDbLine
 10
1764.078457720083
 20
-1380.765986773561
 30
0.0
 11
1762.732205367563
 21
-1380.765986773561
 31
0.0
  0
LINE
  5
100
330
1F
100
AcDbEntity
  8
0
  6
Continuous
 62
     2
100
AcDbLine
 10
1765.982205367563
 20
-1355.773042009643
 30
0.0
 11
1765.982205367563
 21
-1378.542443908869
 31
0.0
  0
LINE
  5
101
330
1F
100
AcDbEntity
  8
0
  6
Continuous
 62
     7
100
AcDbLine
 10
1762.982205367563
 20
-1375.765986773561
 30
0.0
 11
1762.982205367563
 21
-1377.765986773561
 31
0.0
  0
LINE
  5
102
330
1F
100
AcDbEntity
  8
0
  6
Continuous
 62
     7
100
AcDbLine
 10
1763.982205367563
 20
-1374.765986773561
 30
0.0
 11
1762.982205367563
 21
-1375.765986773561
 31
0.0
  0
LINE
  5
103
330
1F
100
AcDbEntity
  8
0
  6
Continuous
 62
     7
100
AcDbLine
 10
1763.982205367563
 20
-1360.765986773561
 30
0.0
 11
1763.982205367563
 21
-1374.765986773561
 31
0.0
  0
LINE
  5
104
330
1F
100
AcDbEntity
  8
0
  6
Continuous
 62
     2
100
AcDbLine
 10
1765.982205367563
 20
-1378.542443908869
 30
0.0
 11
1765.982205367563
 21
-1380.765986773561
 31
0.0
  0
LINE
  5
105
330
1F
100
AcDbEntity
  8
0
  6
Continuous
 62
     7
100
AcDbLine
 10
1762.982205367563
 20
-1375.765986773561
 30
0.0
 11
1762.232205367563
 21
-1376.515986773561
 31
0.0
  0
LINE
  5
106
330
1F
100
AcDbEntity
  8
0
  6
Continuous
 62
     7
100
AcDbLine
 10
1762.232205367563
 20
-1380.265986773561
 30
0.0
 11
1762.232205367563
 21
-1376.515986773561
 31
0.0
  0
LINE
  5
107
330
1F
100
AcDbEntity
  8
0
  6
Continuous
 62
     2
100
AcDbLine
 10
1765.982205367563
 20
-1355.773042009643
 30
0.0
 11
1768.418419374886
 21
-1355.773042009643
 31
0.0
  0
LINE
  5
108
330
1F
100
AcDbEntity
  8
0
  6
Continuous
 62
     7
100
AcDbLine
 10
1794.232205367563
 20
-1333.265986773561
 30
0.0
 11
1794.232205367563
 21
-1337.265986773561
 31
0.0
  0
LINE
  5
109
330
1F
100
AcDbEntity
  8
0
  6
Continuous
 62
     7
100
AcDbLine
 10
1791.482205367564
 20
-1333.26598677356
 30
0.0
 11
1791.482205367564
 21
-1335.913034386317
 31
0.0
  0
LINE
  5
10A
330
1F
100
AcDbEntity
  8
0
  6
Continuous
 62
     7
100
AcDbLine
 10
1784.207205367563
 20
-1330.515986773561
 30
0.0
 11
1770.257205367563
 21
-1330.515986773561
 31
0.0
  0
LINE
  5
10B
330
1F
100
AcDbEntity
  8
0
  6
Continuous
 62
     2
100
AcDbLine
 10
1770.257205367563
 20
-1341.099229456174
 30
0.0
 11
1770.257205367563
 21
-1341.832744090948
 31
0.0
  0
LINE
  5
10C
330
1F
100
AcDbEntity
  8
0
  6
Continuous
 62
     2
100
AcDbLine
 10
1770.257205367563
 20
-1341.099229456174
 30
0.0
 11
1770.257205367563
 21
-1340.932744090948
 31
0.0
  0
LINE
  5
10D
330
1F
100
AcDbEntity
  8
0
  6
Continuous
 62
     2
100
AcDbLine
 10
1770.257205367563
 20
-1341.999229456174
 30
0.0
 11
1770.257205367563
 21
-1341.832744090948
 31
0.0
  0
LINE
  5
10E
330
1F
100
AcDbEntity
  8
0
  6
Continuous
 62
     2
100
AcDbLine
 10
1778.732205367563
 20
-1340.032744090948
 30
0.0
 11
1778.732205367563
 21
-1339.299229456174
 31
0.0
  0
LINE
  5
10F
330
1F
100
AcDbEntity
  8
0
  6
Continuous
 62
     2
100
AcDbLine
 10
1775.732205367563
 20
-1339.299229456174
 30
0.0
 11
1775.732205367563
 21
-1340.032744090948
 31
0.0
  0
LINE
  5
110
330
1F
100
AcDbEntity
  8
0
  6
Continuous
 62
     2
100
AcDbLine
 10
1775.732205367563
 20
-1340.199229456173
 30
0.0
 11
1775.732205367563
 21
-1340.932744090948
 31
0.0
  0
LINE
  5
111
330
1F
100
AcDbEntity
  8
0
  6
Continuous
 62
     2
100
AcDbLine
 10
1775.732205367563
 20
-1340.032744090948
 30
0.0
 11
1775.732205367563
 21
-1340.199229456173
 31
0.0
  0
LINE
  5
112
330
1F
100
AcDbEntity
  8
0
  6
Continuous
 62
     2
100
AcDbLine
 10
1775.732205367563
 20
-1338.765986773561
 30
0.0
 11
1775.732205367563
 21
-1339.299229456174
 31
0.0
  0
LINE
  5
113
330
1F
100
AcDbEntity
  8
0
  6
Continuous
 62
     2
100
AcDbLine
 10
1778.732205367563
 20
-1340.932744090948
 30
0.0
 11
1778.732205367563
 21
-1340.199229456173
 31
0.0
  0
LINE
  5
114
330
1F
100
AcDbEntity
  8
0
  6
Continuous
 62
     2
100
AcDbLine
 10
1778.732205367563
 20
-1340.199229456173
 30
0.0
 11
1778.732205367563
 21
-1340.032744090948
 31
0.0
  0
LINE
  5
115
330
1F
100
AcDbEntity
  8
0
  6
Continuous
 62
     2
100
AcDbLine
 10
1778.732205367563
 20
-1339.299229456174
 30
0.0
 11
1778.732205367563
 21
-1338.765986773561
 31
0.0
  0
LINE
  5
116
330
1F
100
AcDbEntity
  8
0
  6
Continuous
 62
     2
100
AcDbLine
 10
1784.207205367563
 20
-1340.032744090948
 30
0.0
 11
1778.732205367563
 21
-1340.032744090948
 31
0.0
  0
LINE
  5
117
330
1F
100
AcDbEntity
  8
0
  6
Continuous
 62
     2
100
AcDbLine
 10
1784.207205367563
 20
-1339.299229456174
 30
0.0
 11
1778.732205367563
 21
-1339.299229456174
 31
0.0
  0
LINE
  5
118
330
1F
100
AcDbEntity
  8
0
  6
Continuous
 62
     2
100
AcDbLine
 10
1784.207205367563
 20
-1330.515986773561
 30
0.0
 11
1784.207205367563
 21
-1338.765986773561
 31
0.0
  0
LINE
  5
119
330
1F
100
AcDbEntity
  8
0
  6
Continuous
 62
     2
100
AcDbLine
 10
1775.732205367563
 20
-1341.999229456174
 30
0.0
 11
1775.732205367563
 21
-1342.732744090948
 31
0.0
  0
LINE
  5
11A
330
1F
100
AcDbEntity
  8
0
  6
Continuous
 62
     2
100
AcDbLine
 10
1770.257205367563
 20
-1340.932744090948
 30
0.0
 11
1770.257205367563
 21
-1340.199229456173
 31
0.0
  0
LINE
  5
11B
330
1F
100
AcDbEntity
  8
0
  6
Continuous
 62
     2
100
AcDbLine
 10
1770.257205367563
 20
-1330.515986773561
 30
0.0
 11
1770.257205367563
 21
-1338.765986773561
 31
0.0
  0
LINE
  5
11C
330
1F
100
AcDbEntity
  8
0
  6
Continuous
 62
     2
100
AcDbLine
 10
1775.732205367563
 20
-1340.032744090948
 30
0.0
 11
1770.257205367563
 21
-1340.032744090948
 31
0.0
  0
LINE
  5
11D
330
1F
100
AcDbEntity
  8
0
  6
Continuous
 62
     2
100
AcDbLine
 10
1775.732205367563
 20
-1340.932744090948
 30
0.0
 11
1775.732205367563
 21
-1341.099229456174
 31
0.0
  0
LINE
  5
11E
330
1F
100
AcDbEntity
  8
0
  6
Continuous
 62
     2
100
AcDbLine
 10
1775.732205367563
 20
-1341.832744090948
 30
0.0
 11
1770.257205367563
 21
-1341.832744090948
 31
0.0
  0
LINE
  5
11F
330
1F
100
AcDbEntity
  8
0
  6
Continuous
 62
     2
100
AcDbLine
 10
1775.732205367563
 20
-1341.832744090948
 30
0.0
 11
1775.732205367563
 21
-1341.999229456174
 31
0.0
  0
LINE
  5
120
330
1F
100
AcDbEntity
  8
0
  6
Continuous
 62
     2
100
AcDbLine
 10
1775.732205367563
 20
-1339.299229456174
 30
0.0
 11
1770.257205367563
 21
-1339.299229456174
 31
0.0
  0
LINE
  5
121
330
1F
100
AcDbEntity
  8
0
  6
Continuous
 62
     2
100
AcDbLine
 10
1784.207205367563
 20
-1338.765986773561
 30
0.0
 11
1778.732205367563
 21
-1338.765986773561
 31
0.0
  0
LINE
  5
122
330
1F
100
AcDbEntity
  8
0
  6
Continuous
 62
     2
100
AcDbLine
 10
1775.732205367563
 20
-1338.765986773561
 30
0.0
 11
1770.257205367563
 21
-1338.765986773561
 31
0.0
  0
LINE
  5
123
330
1F
100
AcDbEntity
  8
0
  6
Continuous
 62
     7
100
AcDbLine
 10
1790.607205367563
 20
-1330.515986773561
 30
0.0
 11
1784.207205367563
 21
-1330.515986773561
 31
0.0
  0
LINE
  5
124
330
1F
100
AcDbEntity
  8
0
  6
Continuous
 62
     7
100
AcDbLine
 10
1790.607205367563
 20
-1337.765986773561
 30
0.0
 11
1790.607205367563
 21
-1331.765986773561
 31
0.0
  0
LINE
  5
125
330
1F
100
AcDbEntity
  8
0
  6
Continuous
 62
     7
100
AcDbLine
 10
1790.607205367563
 20
-1338.765986773561
 30
0.0
 11
1790.607205367563
 21
-1337.765986773561
 31
0.0
  0
LINE
  5
126
330
1F
100
AcDbEntity
  8
0
  6
Continuous
 62
     7
100
AcDbLine
 10
1790.607205367563
 20
-1331.765986773561
 30
0.0
 11
1790.607205367563
 21
-1330.515986773561
 31
0.0
  0
LINE
  5
127
330
1F
100
AcDbEntity
  8
0
  6
Continuous
 62
     7
100
AcDbLine
 10
1791.482205367564
 20
-1331.765986773561
 30
0.0
 11
1790.607205367563
 21
-1331.765986773561
 31
0.0
  0
LINE
  5
128
330
1F
100
AcDbEntity
  8
0
  6
Continuous
 62
     7
100
AcDbLine
 10
1791.482205367564
 20
-1331.765986773561
 30
0.0
 11
1791.482205367564
 21
-1333.26598677356
 31
0.0
  0
LINE
  5
129
330
1F
100
AcDbEntity
  8
0
  6
Continuous
 62
     2
100
AcDbLine
 10
1788.482205367563
 20
-1378.542443908869
 30
0.0
 11
1765.982205367563
 21
-1378.542443908869
 31
0.0
  0
LINE
  5
12A
330
1F
100
AcDbEntity
  8
0
  6
Continuous
 62
     2
100
AcDbLine
 10
1788.482205367563
 20
-1378.542443908869
 30
0.0
 11
1788.482205367563
 21
-1380.765986773561
 31
0.0
  0
LINE
  5
12B
330
1F
100
AcDbEntity
  8
0
  6
Continuous
 62
     7
100
AcDbLine
 10
1788.482205367563
 20
-1380.765986773561
 30
0.0
 11
1765.982205367563
 21
-1380.765986773561
 31
0.0
  0
LINE
  5
12C
330
1F
100
AcDbEntity
  8
0
  6
Continuous
 62
     7
100
AcDbLine
 10
1790.385953015044
 20
-1382.265986773561
 30
0.0
 11
1764.078457720083
 21
-1382.265986773561
 31
0.0
  0
LINE
  5
12D
330
1F
100
AcDbEntity
  8
0
  6
Continuous
 62
     2
100
AcDbLine
 10
1770.257205367563
 20
-1338.765986773561
 30
0.0
 11
1763.857205367563
 21
-1338.765986773561
 31
0.0
  0
LINE
  5
12E
330
1F
100
AcDbEntity
  8
0
  6
Continuous
 62
     7
100
AcDbLine
 10
1764.01736853886
 20
-1340.199229456173
 30
0.0
 11
1764.197042196266
 21
-1340.032744090948
 31
0.0
  0
LINE
  5
12F
330
1F
100
AcDbEntity
  8
0
  6
Continuous
 62
     2
100
AcDbLine
 10
1770.257205367563
 20
-1340.199229456173
 30
0.0
 11
1770.257205367563
 21
-1340.032744090948
 31
0.0
  0
LINE
  5
130
330
1F
100
AcDbEntity
  8
0
  6
Continuous
 62
     2
100
AcDbLine
 10
1770.257205367563
 20
-1339.299229456174
 30
0.0
 11
1764.197042196266
 21
-1339.299229456174
 31
0.0
  0
LINE
  5
131
330
1F
100
AcDbEntity
  8
0
  6
Continuous
 62
     2
100
AcDbLine
 10
1770.257205367563
 20
-1340.032744090948
 30
0.0
 11
1764.197042196266
 21
-1340.032744090948
 31
0.0
  0
LINE
  5
132
330
1F
100
AcDbEntity
  8
0
  6
Continuous
 62
     7
100
AcDbLine
 10
1760.232205367563
 20
-1337.265986773561
 30
0.0
 11
1760.232205367563
 21
-1335.265986773561
 31
0.0
  0
LINE
  5
133
330
1F
100
AcDbEntity
  8
0
  6
Continuous
 62
     7
100
AcDbLine
 10
1770.257205367563
 20
-1330.515986773561
 30
0.0
 11
1763.857205367563
 21
-1330.515986773561
 31
0.0
  0
LINE
  5
134
330
1F
100
AcDbEntity
  8
0
  6
Continuous
 62
     7
100
AcDbLine
 10
1763.857205367563
 20
-1331.765986773561
 30
0.0
 11
1763.857205367563
 21
-1330.515986773561
 31
0.0
  0
LINE
  5
135
330
1F
100
AcDbEntity
  8
0
  6
Continuous
 62
     7
100
AcDbLine
 10
1792.232205367563
 20
-1376.515986773561
 30
0.0
 11
1791.482205367563
 21
-1375.765986773561
 31
0.0
  0
LINE
  5
136
330
1F
100
AcDbEntity
  8
0
  6
Continuous
 62
     2
100
AcDbLine
 10
1784.207205367563
 20
-1341.099229456174
 30
0.0
 11
1784.207205367563
 21
-1340.932744090948
 31
0.0
  0
LINE
  5
137
330
1F
100
AcDbEntity
  8
0
  6
Continuous
 62
     2
100
AcDbLine
 10
1784.207205367563
 20
-1344.532744090948
 30
0.0
 11
1784.207205367563
 21
-1343.799229456174
 31
0.0
  0
LINE
  5
138
330
1F
100
AcDbEntity
  8
0
  6
Continuous
 62
     2
100
AcDbLine
 10
1784.207205367563
 20
-1342.899229456174
 30
0.0
 11
1784.207205367563
 21
-1342.732744090948
 31
0.0
  0
LINE
  5
139
330
1F
100
AcDbEntity
  8
0
  6
Continuous
 62
     7
100
AcDbLine
 10
1790.447042196266
 20
-1342.732744090948
 30
0.0
 11
1790.26736853886
 21
-1342.899229456174
 31
0.0
  0
LINE
  5
13A
330
1F
100
AcDbEntity
  8
0
  6
Continuous
 62
     7
100
AcDbLine
 10
1790.447042196266
 20
-1339.132744090948
 30
0.0
 11
1790.26736853886
 21
-1339.299229456174
 31
0.0
  0
LINE
  5
13B
330
1F
100
AcDbEntity
  8
0
  6
Continuous
 62
     7
100
AcDbLine
 10
1790.447042196266
 20
-1340.199229456173
 30
0.0
 11
1790.26736853886
 21
-1340.032744090948
 31
0.0
  0
LINE
  5
13C
330
1F
100
AcDbEntity
  8
0
  6
Continuous
 62
     2
100
AcDbLine
 10
1784.207205367563
 20
-1338.765986773561
 30
0.0
 11
1784.207205367563
 21
-1339.132744090948
 31
0.0
  0
LINE
  5
13D
330
1F
100
AcDbEntity
  8
0
  6
Continuous
 62
     2
100
AcDbLine
 10
1784.207205367563
 20
-1340.032744090948
 30
0.0
 11
1790.26736853886
 21
-1340.032744090948
 31
0.0
  0
LINE
  5
13E
330
1F
100
AcDbEntity
  8
0
  6
Continuous
 62
     2
100
AcDbLine
 10
1784.207205367563
 20
-1342.899229456174
 30
0.0
 11
1790.26736853886
 21
-1342.899229456174
 31
0.0
  0
LINE
  5
13F
330
1F
100
AcDbEntity
  8
0
  6
Continuous
 62
     2
100
AcDbLine
 10
1784.207205367563
 20
-1339.299229456174
 30
0.0
 11
1790.26736853886
 21
-1339.299229456174
 31
0.0
  0
LINE
  5
140
330
1F
100
AcDbEntity
  8
0
  6
Continuous
 62
     2
100
AcDbLine
 10
1784.207205367563
 20
-1339.132744090948
 30
0.0
 11
1784.207205367563
 21
-1339.299229456174
 31
0.0
  0
LINE
  5
141
330
1F
100
AcDbEntity
  8
0
  6
Continuous
 62
     2
100
AcDbLine
 10
1784.207205367563
 20
-1340.932744090948
 30
0.0
 11
1784.207205367563
 21
-1340.199229456173
 31
0.0
  0
LINE
  5
142
330
1F
100
AcDbEntity
  8
0
  6
Continuous
 62
     2
100
AcDbLine
 10
1784.207205367563
 20
-1340.032744090948
 30
0.0
 11
1784.207205367563
 21
-1339.299229456174
 31
0.0
  0
LINE
  5
143
330
1F
100
AcDbEntity
  8
0
  6
Continuous
 62
     2
100
AcDbLine
 10
1784.207205367563
 20
-1340.199229456173
 30
0.0
 11
1784.207205367563
 21
-1340.032744090948
 31
0.0
  0
LINE
  5
144
330
1F
100
AcDbEntity
  8
0
  6
Continuous
 62
     2
100
AcDbLine
 10
1790.607205367563
 20
-1338.765986773561
 30
0.0
 11
1784.207205367563
 21
-1338.765986773561
 31
0.0
  0
LINE
  5
145
330
1F
100
AcDbEntity
  8
0
  6
Continuous
 62
     7
100
AcDbLine
 10
1790.482205367563
 20
-1374.765986773561
 30
0.0
 11
1790.482205367563
 21
-1360.765986773561
 31
0.0
  0
LINE
  5
146
330
1F
100
AcDbEntity
  8
0
  6
Continuous
 62
     2
100
AcDbLine
 10
1788.482205367563
 20
-1378.542443908869
 30
0.0
 11
1788.482205367563
 21
-1355.773042009643
 31
0.0
  0
LINE
  5
147
330
1F
100
AcDbEntity
  8
0
  6
Continuous
 62
     7
100
AcDbLine
 10
1791.482205367563
 20
-1377.765986773561
 30
0.0
 11
1791.482205367563
 21
-1375.765986773561
 31
0.0
  0
LINE
  5
148
330
1F
100
AcDbEntity
  8
0
  6
Continuous
 62
     7
100
AcDbLine
 10
1791.482205367563
 20
-1375.765986773561
 30
0.0
 11
1790.482205367563
 21
-1374.765986773561
 31
0.0
  0
LINE
  5
149
330
1F
100
AcDbEntity
  8
0
  6
Continuous
 62
     7
100
AcDbLine
 10
1790.385953015044
 20
-1380.765986773561
 30
0.0
 11
1788.482205367563
 21
-1380.765986773561
 31
0.0
  0
LINE
  5
14A
330
1F
100
AcDbEntity
  8
0
  6
Continuous
 62
     7
100
AcDbLine
 10
1791.732205367563
 20
-1380.765986773561
 30
0.0
 11
1790.385953015044
 21
-1380.765986773561
 31
0.0
  0
LINE
  5
14B
330
1F
100
AcDbEntity
  8
0
  6
Continuous
 62
     7
100
AcDbLine
 10
1792.232205367563
 20
-1380.265986773561
 30
0.0
 11
1792.232205367563
 21
-1376.515986773561
 31
0.0
  0
LINE
  5
14C
330
1F
100
AcDbEntity
  8
0
  6
Continuous
 62
     7
100
AcDbLine
 10
1790.385953015044
 20
-1382.265986773561
 30
0.0
 11
1790.385953015044
 21
-1380.765986773561
 31
0.0
  0
LINE
  5
14D
330
1F
100
AcDbEntity
  8
0
  6
Continuous
 62
     7
100
AcDbLine
 10
1689.905033491251
 20
-1380.765986773561
 30
0.0
 11
1685.899373075536
 21
-1380.765986773561
 31
0.0
  0
LINE
  5
14E
330
1F
100
AcDbEntity
  8
0
  6
Continuous
 62
     2
100
AcDbLine
 10
1685.321780690163
 20
-1377.765986773561
 30
0.0
 11
1682.424003211295
 21
-1378.542443908869
 31
0.0
  0
LINE
  5
14F
330
1F
100
AcDbEntity
  8
0
  6
Continuous
 62
     2
100
AcDbLine
 10
1694.369372224218
 20
-1377.765986773561
 30
0.0
 11
1685.321780690163
 21
-1377.765986773561
 31
0.0
  0
LINE
  5
150
330
1F
100
AcDbEntity
  8
0
  6
Continuous
 62
     2
100
AcDbLine
 10
1684.785882305301
 20
-1375.765986773561
 30
0.0
 11
1685.321780690163
 21
-1377.765986773561
 31
0.0
  0
LINE
  5
151
330
1F
100
AcDbEntity
  8
0
  6
Continuous
 62
     2
100
AcDbLine
 10
1684.785882305301
 20
-1375.765986773561
 30
0.0
 11
1694.369372224218
 21
-1375.765986773561
 31
0.0
  0
LINE
  5
152
330
1F
100
AcDbEntity
  8
0
  6
Continuous
 62
     2
100
AcDbLine
 10
1703.736869221815
 20
-1375.765986773561
 30
0.0
 11
1713.320359140733
 21
-1375.765986773561
 31
0.0
  0
LINE
  5
153
330
1F
100
AcDbEntity
  8
0
  6
Continuous
 62
     2
100
AcDbLine
 10
1713.320359140733
 20
-1375.765986773561
 30
0.0
 11
1712.784460755871
 21
-1377.765986773561
 31
0.0
  0
LINE
  5
154
330
1F
100
AcDbEntity
  8
0
  6
Continuous
 62
     7
100
AcDbLine
 10
1715.903256248047
 20
-1374.765986773561
 30
0.0
 11
1682.202985197986
 21
-1374.765986773561
 31
0.0
  0
LINE
  5
155
330
1F
100
AcDbEntity
  8
0
  6
Continuous
 62
     2
100
AcDbLine
 10
1712.784460755871
 20
-1377.765986773561
 30
0.0
 11
1715.682238234738
 21
-1378.542443908869
 31
0.0
  0
LINE
  5
156
330
1F
100
AcDbEntity
  8
0
  6
Continuous
 62
     2
100
AcDbLine
 10
1682.453120723017
 20
-1341.099229456174
 30
0.0
 11
1695.183588476641
 21
-1341.099229456174
 31
0.0
  0
LINE
  5
157
330
1F
100
AcDbEntity
  8
0
  6
Continuous
 62
     2
100
AcDbLine
 10
1682.453120723017
 20
-1341.832744090948
 30
0.0
 11
1696.628724234292
 21
-1341.832744090948
 31
0.0
  0
LINE
  5
158
330
1F
100
AcDbEntity
  8
0
  6
Continuous
 62
     2
100
AcDbLine
 10
1715.653120723017
 20
-1345.432744090948
 30
0.0
 11
1682.453120723017
 21
-1345.432744090948
 31
0.0
  0
LINE
  5
159
330
1F
100
AcDbEntity
  8
0
  6
Continuous
 62
     7
100
AcDbLine
 10
1682.453120723017
 20
-1354.765986773561
 30
0.0
 11
1715.653120723017
 21
-1354.765986773561
 31
0.0
  0
LINE
  5
15A
330
1F
100
AcDbEntity
  8
0
  6
Continuous
 62
     7
100
AcDbLine
 10
1679.373308618192
 20
-1354.765986773561
 30
0.0
 11
1677.09570102129
 21
-1354.765986773561
 31
0.0
  0
LINE
  5
15B
330
1F
100
AcDbEntity
  8
0
  6
Continuous
 62
     7
100
AcDbLine
 10
1676.053120723017
 20
-1354.765986773561
 30
0.0
 11
1676.053120723017
 21
-1345.965986773561
 31
0.0
  0
LINE
  5
15C
330
1F
100
AcDbEntity
  8
0
  6
Continuous
 62
     7
100
AcDbLine
 10
1679.373308618192
 20
-1354.765986773561
 30
0.0
 11
1682.453120723017
 21
-1354.765986773561
 31
0.0
  0
LINE
  5
15D
330
1F
100
AcDbEntity
  8
0
  6
Continuous
 62
     2
100
AcDbLine
 10
1679.373308618192
 20
-1355.565986773561
 30
0.0
 11
1680.498695226403
 21
-1359.765986773561
 31
0.0
  0
LINE
  5
15E
330
1F
100
AcDbEntity
  8
0
  6
Continuous
 62
     7
100
AcDbLine
 10
1685.899373075536
 20
-1380.765986773561
 30
0.0
 11
1685.899373075536
 21
-1382.265986773561
 31
0.0
  0
LINE
  5
15F
330
1F
100
AcDbEntity
  8
0
  6
Continuous
 62
     2
100
AcDbLine
 10
1685.321780690163
 20
-1377.765986773561
 30
0.0
 11
1685.321780690163
 21
-1380.765986773561
 31
0.0
  0
LINE
  5
160
330
1F
100
AcDbEntity
  8
0
  6
Continuous
 62
     7
100
AcDbLine
 10
1685.899373075536
 20
-1380.765986773561
 30
0.0
 11
1685.321780690163
 21
-1380.765986773561
 31
0.0
  0
LINE
  5
161
330
1F
100
AcDbEntity
  8
0
  6
Continuous
 62
     2
100
AcDbLine
 10
1682.453120723017
 20
-1344.699229456173
 30
0.0
 11
1682.453120723017
 21
-1344.532744090948
 31
0.0
  0
LINE
  5
162
330
1F
100
AcDbEntity
  8
0
  6
Continuous
 62
     2
100
AcDbLine
 10
1682.453120723017
 20
-1345.432744090948
 30
0.0
 11
1682.453120723017
 21
-1345.599229456174
 31
0.0
  0
LINE
  5
163
330
1F
100
AcDbEntity
  8
0
  6
Continuous
 62
     2
100
AcDbLine
 10
1682.453120723017
 20
-1341.099229456174
 30
0.0
 11
1682.453120723017
 21
-1341.832744090948
 31
0.0
  0
LINE
  5
164
330
1F
100
AcDbEntity
  8
0
  6
Continuous
 62
     2
100
AcDbLine
 10
1682.453120723017
 20
-1345.965986773561
 30
0.0
 11
1682.453120723017
 21
-1354.765986773561
 31
0.0
  0
LINE
  5
165
330
1F
100
AcDbEntity
  8
0
  6
Continuous
 62
     7
100
AcDbLine
 10
1678.45169650395
 20
-1360.765986773561
 30
0.0
 11
1682.202985197986
 21
-1374.765986773561
 31
0.0
  0
LINE
  5
166
330
1F
100
AcDbEntity
  8
0
  6
Continuous
 62
     7
100
AcDbLine
 10
1722.053120723017
 20
-1330.515986773561
 30
0.0
 11
1722.053120723017
 21
-1338.765986773561
 31
0.0
  0
LINE
  5
167
330
1F
100
AcDbEntity
  8
0
  6
Continuous
 62
     7
100
AcDbLine
 10
1722.053120723017
 20
-1330.515986773561
 30
0.0
 11
1715.653120723017
 21
-1330.515986773561
 31
0.0
  0
LINE
  5
168
330
1F
100
AcDbEntity
  8
0
  6
Continuous
 62
     7
100
AcDbLine
 10
1722.053120723017
 20
-1342.365986773561
 30
0.0
 11
1722.053120723017
 21
-1344.165986773561
 31
0.0
  0
LINE
  5
169
330
1F
100
AcDbEntity
  8
0
  6
Continuous
 62
     7
100
AcDbLine
 10
1722.053120723017
 20
-1340.565986773561
 30
0.0
 11
1722.053120723017
 21
-1342.365986773561
 31
0.0
  0
LINE
  5
16A
330
1F
100
AcDbEntity
  8
0
  6
Continuous
 62
     7
100
AcDbLine
 10
1722.053120723017
 20
-1344.165986773561
 30
0.0
 11
1722.053120723017
 21
-1345.965986773561
 31
0.0
  0
LINE
  5
16B
330
1F
100
AcDbEntity
  8
0
  6
Continuous
 62
     7
100
AcDbLine
 10
1722.053120723017
 20
-1338.765986773561
 30
0.0
 11
1722.053120723017
 21
-1340.565986773561
 31
0.0
  0
LINE
  5
16C
330
1F
100
AcDbEntity
  8
0
  6
Continuous
 62
     7
100
AcDbLine
 10
1722.053120723017
 20
-1354.765986773561
 30
0.0
 11
1722.053120723017
 21
-1345.965986773561
 31
0.0
  0
LINE
  5
16D
330
1F
100
AcDbEntity
  8
0
  6
Continuous
 62
     2
100
AcDbLine
 10
1721.713283894314
 20
-1340.032744090948
 30
0.0
 11
1721.89295755172
 21
-1340.199229456173
 31
0.0
  0
LINE
  5
16E
330
1F
100
AcDbEntity
  8
0
  6
Continuous
 62
     2
100
AcDbLine
 10
1721.713283894314
 20
-1342.899229456174
 30
0.0
 11
1721.89295755172
 21
-1342.732744090948
 31
0.0
  0
LINE
  5
16F
330
1F
100
AcDbEntity
  8
0
  6
Continuous
 62
     2
100
AcDbLine
 10
1721.713283894314
 20
-1344.699229456173
 30
0.0
 11
1721.89295755172
 21
-1344.532744090948
 31
0.0
  0
LINE
  5
170
330
1F
100
AcDbEntity
  8
0
  6
Continuous
 62
     2
100
AcDbLine
 10
1721.713283894314
 20
-1341.099229456174
 30
0.0
 11
1721.89295755172
 21
-1340.932744090948
 31
0.0
  0
LINE
  5
171
330
1F
100
AcDbEntity
  8
0
  6
Continuous
 62
     2
100
AcDbLine
 10
1715.653120723017
 20
-1345.965986773561
 30
0.0
 11
1715.653120723017
 21
-1354.765986773561
 31
0.0
  0
LINE
  5
172
330
1F
100
AcDbEntity
  8
0
  6
Continuous
 62
     2
100
AcDbLine
 10
1715.653120723017
 20
-1339.299229456174
 30
0.0
 11
1721.713283894314
 21
-1339.299229456174
 31
0.0
  0
LINE
  5
173
330
1F
100
AcDbEntity
  8
0
  6
Continuous
 62
     2
100
AcDbLine
 10
1721.713283894314
 20
-1339.299229456174
 30
0.0
 11
1721.89295755172
 21
-1339.132744090948
 31
0.0
  0
LINE
  5
174
330
1F
100
AcDbEntity
  8
0
  6
Continuous
 62
     2
100
AcDbLine
 10
1715.653120723017
 20
-1340.032744090948
 30
0.0
 11
1721.713283894314
 21
-1340.032744090948
 31
0.0
  0
LINE
  5
175
330
1F
100
AcDbEntity
  8
0
  6
Continuous
 62
     2
100
AcDbLine
 10
1715.653120723017
 20
-1339.299229456174
 30
0.0
 11
1715.653120723017
 21
-1340.032744090948
 31
0.0
  0
LINE
  5
176
330
1F
100
AcDbEntity
  8
0
  6
Continuous
 62
     2
100
AcDbLine
 10
1715.653120723017
 20
-1345.965986773561
 30
0.0
 11
1715.653120723017
 21
-1345.599229456174
 31
0.0
  0
LINE
  5
177
330
1F
100
AcDbEntity
  8
0
  6
Continuous
 62
     2
100
AcDbLine
 10
1715.653120723017
 20
-1345.432744090948
 30
0.0
 11
1715.653120723017
 21
-1345.599229456174
 31
0.0
  0
LINE
  5
178
330
1F
100
AcDbEntity
  8
0
  6
Continuous
 62
     2
100
AcDbLine
 10
1715.653120723017
 20
-1342.899229456174
 30
0.0
 11
1721.713283894314
 21
-1342.899229456174
 31
0.0
  0
LINE
  5
179
330
1F
100
AcDbEntity
  8
0
  6
Continuous
 62
     2
100
AcDbLine
 10
1715.653120723017
 20
-1344.699229456173
 30
0.0
 11
1721.713283894314
 21
-1344.699229456173
 31
0.0
  0
LINE
  5
17A
330
1F
100
AcDbEntity
  8
0
  6
Continuous
 62
     2
100
AcDbLine
 10
1721.713283894314
 20
-1345.432744090948
 30
0.0
 11
1721.89295755172
 21
-1345.599229456174
 31
0.0
  0
LINE
  5
17B
330
1F
100
AcDbEntity
  8
0
  6
Continuous
 62
     2
100
AcDbLine
 10
1715.653120723017
 20
-1343.632744090948
 30
0.0
 11
1721.713283894314
 21
-1343.632744090948
 31
0.0
  0
LINE
  5
17C
330
1F
100
AcDbEntity
  8
0
  6
Continuous
 62
     2
100
AcDbLine
 10
1715.653120723017
 20
-1342.899229456174
 30
0.0
 11
1715.653120723017
 21
-1342.732744090948
 31
0.0
  0
LINE
  5
17D
330
1F
100
AcDbEntity
  8
0
  6
Continuous
 62
     2
100
AcDbLine
 10
1721.713283894314
 20
-1343.632744090948
 30
0.0
 11
1721.89295755172
 21
-1343.799229456174
 31
0.0
  0
LINE
  5
17E
330
1F
100
AcDbEntity
  8
0
  6
Continuous
 62
     2
100
AcDbLine
 10
1715.653120723017
 20
-1345.432744090948
 30
0.0
 11
1721.713283894314
 21
-1345.432744090948
 31
0.0
  0
LINE
  5
17F
330
1F
100
AcDbEntity
  8
0
  6
Continuous
 62
     7
100
AcDbLine
 10
1718.732932827842
 20
-1354.765986773561
 30
0.0
 11
1721.010540424744
 21
-1354.765986773561
 31
0.0
  0
LINE
  5
180
330
1F
100
AcDbEntity
  8
0
  6
Continuous
 62
     2
100
AcDbLine
 10
1721.713283894314
 20
-1341.832744090948
 30
0.0
 11
1721.89295755172
 21
-1341.999229456174
 31
0.0
  0
LINE
  5
181
330
1F
100
AcDbEntity
  8
0
  6
Continuous
 62
     2
100
AcDbLine
 10
1715.653120723017
 20
-1341.832744090948
 30
0.0
 11
1715.653120723017
 21
-1341.999229456174
 31
0.0
  0
LINE
  5
182
330
1F
100
AcDbEntity
  8
0
  6
Continuous
 62
     2
100
AcDbLine
 10
1715.653120723017
 20
-1341.099229456174
 30
0.0
 11
1721.713283894314
 21
-1341.099229456174
 31
0.0
  0
LINE
  5
183
330
1F
100
AcDbEntity
  8
0
  6
Continuous
 62
     2
100
AcDbLine
 10
1715.653120723017
 20
-1341.099229456174
 30
0.0
 11
1715.653120723017
 21
-1341.832744090948
 31
0.0
  0
LINE
  5
184
330
1F
100
AcDbEntity
  8
0
  6
Continuous
 62
     2
100
AcDbLine
 10
1715.653120723017
 20
-1341.832744090948
 30
0.0
 11
1721.713283894314
 21
-1341.832744090948
 31
0.0
  0
LINE
  5
185
330
1F
100
AcDbEntity
  8
0
  6
Continuous
 62
     7
100
AcDbLine
 10
1719.654544942083
 20
-1360.765986773561
 30
0.0
 11
1715.903256248047
 21
-1374.765986773561
 31
0.0
  0
LINE
  5
186
330
1F
100
AcDbEntity
  8
0
  6
Continuous
 62
     7
100
AcDbLine
 10
1721.783281085775
 20
-1355.773042009643
 30
0.0
 11
1722.053120723017
 21
-1354.765986773561
 31
0.0
  0
LINE
  5
187
330
1F
100
AcDbEntity
  8
0
  6
Continuous
 62
     7
100
AcDbLine
 10
1721.783281085775
 20
-1355.773042009643
 30
0.0
 11
1715.682238234738
 21
-1378.542443908869
 31
0.0
  0
LINE
  5
188
330
1F
100
AcDbEntity
  8
0
  6
Continuous
 62
     2
100
AcDbLine
 10
1682.453120723017
 20
-1345.965986773561
 30
0.0
 11
1676.053120723017
 21
-1345.965986773561
 31
0.0
  0
LINE
  5
189
330
1F
100
AcDbEntity
  8
0
  6
Continuous
 62
     2
100
AcDbLine
 10
1682.453120723017
 20
-1344.699229456173
 30
0.0
 11
1676.39295755172
 21
-1344.699229456173
 31
0.0
  0
LINE
  5
18A
330
1F
100
AcDbEntity
  8
0
  6
Continuous
 62
     2
100
AcDbLine
 10
1715.653120723017
 20
-1344.699229456173
 30
0.0
 11
1682.453120723017
 21
-1344.699229456173
 31
0.0
  0
LINE
  5
18B
330
1F
100
AcDbEntity
  8
0
  6
Continuous
 62
     2
100
AcDbLine
 10
1715.653120723017
 20
-1345.965986773561
 30
0.0
 11
1682.453120723017
 21
-1345.965986773561
 31
0.0
  0
LINE
  5
18C
330
1F
100
AcDbEntity
  8
0
  6
Continuous
 62
     2
100
AcDbLine
 10
1682.453120723017
 20
-1344.699229456173
 30
0.0
 11
1682.453120723017
 21
-1345.432744090948
 31
0.0
  0
LINE
  5
18D
330
1F
100
AcDbEntity
  8
0
  6
Continuous
 62
     2
100
AcDbLine
 10
1682.453120723017
 20
-1345.965986773561
 30
0.0
 11
1682.453120723017
 21
-1345.599229456174
 31
0.0
  0
LINE
  5
18E
330
1F
100
AcDbEntity
  8
0
  6
Continuous
 62
     2
100
AcDbLine
 10
1682.453120723017
 20
-1344.532744090948
 30
0.0
 11
1682.453120723017
 21
-1343.799229456174
 31
0.0
  0
LINE
  5
18F
330
1F
100
AcDbEntity
  8
0
  6
Continuous
 62
     2
100
AcDbLine
 10
1715.653120723017
 20
-1344.532744090948
 30
0.0
 11
1715.653120723017
 21
-1343.799229456174
 31
0.0
  0
LINE
  5
190
330
1F
100
AcDbEntity
  8
0
  6
Continuous
 62
     2
100
AcDbLine
 10
1715.653120723017
 20
-1344.699229456173
 30
0.0
 11
1715.653120723017
 21
-1344.532744090948
 31
0.0
  0
LINE
  5
191
330
1F
100
AcDbEntity
  8
0
  6
Continuous
 62
     2
100
AcDbLine
 10
1715.653120723017
 20
-1344.699229456173
 30
0.0
 11
1715.653120723017
 21
-1345.432744090948
 31
0.0
  0
LINE
  5
192
330
1F
100
AcDbEntity
  8
0
  6
Continuous
 62
     2
100
AcDbLine
 10
1676.39295755172
 20
-1345.432744090948
 30
0.0
 11
1676.213283894314
 21
-1345.599229456174
 31
0.0
  0
LINE
  5
193
330
1F
100
AcDbEntity
  8
0
  6
Continuous
 62
     7
100
AcDbLine
 10
1676.053120723017
 20
-1344.165986773561
 30
0.0
 11
1676.053120723017
 21
-1345.965986773561
 31
0.0
  0
LINE
  5
194
330
1F
100
AcDbEntity
  8
0
  6
Continuous
 62
     2
100
AcDbLine
 10
1676.39295755172
 20
-1344.699229456173
 30
0.0
 11
1676.213283894314
 21
-1344.532744090948
 31
0.0
  0
LINE
  5
195
330
1F
100
AcDbEntity
  8
0
  6
Continuous
 62
     2
100
AcDbLine
 10
1682.453120723017
 20
-1345.432744090948
 30
0.0
 11
1676.39295755172
 21
-1345.432744090948
 31
0.0
  0
LINE
  5
196
330
1F
100
AcDbEntity
  8
0
  6
Continuous
 62
     2
100
AcDbLine
 10
1715.653120723017
 20
-1341.099229456174
 30
0.0
 11
1715.653120723017
 21
-1340.932744090948
 31
0.0
  0
LINE
  5
197
330
1F
100
AcDbEntity
  8
0
  6
Continuous
 62
     2
100
AcDbLine
 10
1715.653120723017
 20
-1342.899229456174
 30
0.0
 11
1715.653120723017
 21
-1343.632744090948
 31
0.0
  0
LINE
  5
198
330
1F
100
AcDbEntity
  8
0
  6
Continuous
 62
     2
100
AcDbLine
 10
1682.453120723017
 20
-1342.899229456174
 30
0.0
 11
1682.453120723017
 21
-1342.732744090948
 31
0.0
  0
LINE
  5
199
330
1F
100
AcDbEntity
  8
0
  6
Continuous
 62
     2
100
AcDbLine
 10
1682.453120723017
 20
-1342.899229456174
 30
0.0
 11
1682.453120723017
 21
-1343.632744090948
 31
0.0
  0
LINE
  5
19A
330
1F
100
AcDbEntity
  8
0
  6
Continuous
 62
     2
100
AcDbLine
 10
1676.39295755172
 20
-1343.632744090948
 30
0.0
 11
1676.213283894314
 21
-1343.799229456174
 31
0.0
  0
LINE
  5
19B
330
1F
100
AcDbEntity
  8
0
  6
Continuous
 62
     7
100
AcDbLine
 10
1676.053120723017
 20
-1342.365986773561
 30
0.0
 11
1676.053120723017
 21
-1344.165986773561
 31
0.0
  0
LINE
  5
19C
330
1F
100
AcDbEntity
  8
0
  6
Continuous
 62
     2
100
AcDbLine
 10
1676.39295755172
 20
-1342.899229456174
 30
0.0
 11
1676.213283894314
 21
-1342.732744090948
 31
0.0
  0
LINE
  5
19D
330
1F
100
AcDbEntity
  8
0
  6
Continuous
 62
     2
100
AcDbLine
 10
1715.653120723017
 20
-1342.732744090948
 30
0.0
 11
1715.653120723017
 21
-1341.999229456174
 31
0.0
  0
LINE
  5
19E
330
1F
100
AcDbEntity
  8
0
  6
Continuous
 62
     2
100
AcDbLine
 10
1682.453120723017
 20
-1342.899229456174
 30
0.0
 11
1715.653120723017
 21
-1342.899229456174
 31
0.0
  0
LINE
  5
19F
330
1F
100
AcDbEntity
  8
0
  6
Continuous
 62
     7
100
AcDbLine
 10
1676.053120723017
 20
-1340.565986773561
 30
0.0
 11
1676.053120723017
 21
-1342.365986773561
 31
0.0
  0
LINE
  5
1A0
330
1F
100
AcDbEntity
  8
0
  6
Continuous
 62
     2
100
AcDbLine
 10
1715.653120723017
 20
-1343.632744090948
 30
0.0
 11
1715.653120723017
 21
-1343.799229456174
 31
0.0
  0
LINE
  5
1A1
330
1F
100
AcDbEntity
  8
0
  6
Continuous
 62
     2
100
AcDbLine
 10
1682.453120723017
 20
-1343.632744090948
 30
0.0
 11
1715.653120723017
 21
-1343.632744090948
 31
0.0
  0
LINE
  5
1A2
330
1F
100
AcDbEntity
  8
0
  6
Continuous
 62
     2
100
AcDbLine
 10
1682.453120723017
 20
-1343.632744090948
 30
0.0
 11
1682.453120723017
 21
-1343.799229456174
 31
0.0
  0
LINE
  5
1A3
330
1F
100
AcDbEntity
  8
0
  6
Continuous
 62
     2
100
AcDbLine
 10
1682.453120723017
 20
-1342.899229456174
 30
0.0
 11
1676.39295755172
 21
-1342.899229456174
 31
0.0
  0
LINE
  5
1A4
330
1F
100
AcDbEntity
  8
0
  6
Continuous
 62
     2
100
AcDbLine
 10
1682.453120723017
 20
-1343.632744090948
 30
0.0
 11
1676.39295755172
 21
-1343.632744090948
 31
0.0
  0
LINE
  5
1A5
330
1F
100
AcDbEntity
  8
0
  6
Continuous
 62
     2
100
AcDbLine
 10
1676.39295755172
 20
-1341.832744090948
 30
0.0
 11
1676.213283894314
 21
-1341.999229456174
 31
0.0
  0
LINE
  5
1A6
330
1F
100
AcDbEntity
  8
0
  6
Continuous
 62
     2
100
AcDbLine
 10
1676.39295755172
 20
-1341.099229456174
 30
0.0
 11
1676.213283894314
 21
-1340.932744090948
 31
0.0
  0
LINE
  5
1A7
330
1F
100
AcDbEntity
  8
0
  6
Continuous
 62
     2
100
AcDbLine
 10
1682.453120723017
 20
-1341.832744090948
 30
0.0
 11
1682.453120723017
 21
-1341.999229456174
 31
0.0
  0
LINE
  5
1A8
330
1F
100
AcDbEntity
  8
0
  6
Continuous
 62
     2
100
AcDbLine
 10
1682.453120723017
 20
-1342.732744090948
 30
0.0
 11
1682.453120723017
 21
-1341.999229456174
 31
0.0
  0
LINE
  5
1A9
330
1F
100
AcDbEntity
  8
0
  6
Continuous
 62
     2
100
AcDbLine
 10
1682.453120723017
 20
-1341.832744090948
 30
0.0
 11
1676.39295755172
 21
-1341.832744090948
 31
0.0
  0
LINE
  5
1AA
330
1F
100
AcDbEntity
  8
0
  6
Continuous
 62
     2
100
AcDbLine
 10
1682.453120723017
 20
-1341.099229456174
 30
0.0
 11
1682.453120723017
 21
-1340.932744090948
 31
0.0
  0
LINE
  5
1AB
330
1F
100
AcDbEntity
  8
0
  6
Continuous
 62
     2
100
AcDbLine
 10
1682.453120723017
 20
-1341.099229456174
 30
0.0
 11
1676.39295755172
 21
-1341.099229456174
 31
0.0
  0
LINE
  5
1AC
330
1F
100
AcDbEntity
  8
0
  6
Continuous
 62
     2
100
AcDbLine
 10
1676.39295755172
 20
-1340.032744090948
 30
0.0
 11
1676.213283894314
 21
-1340.199229456173
 31
0.0
  0
LINE
  5
1AD
330
1F
100
AcDbEntity
  8
0
  6
Continuous
 62
     7
100
AcDbLine
 10
1676.053120723017
 20
-1338.765986773561
 30
0.0
 11
1676.053120723017
 21
-1340.565986773561
 31
0.0
  0
LINE
  5
1AE
330
1F
100
AcDbEntity
  8
0
  6
Continuous
 62
     7
100
AcDbLine
 10
1676.053120723017
 20
-1338.765986773561
 30
0.0
 11
1676.053120723017
 21
-1330.515986773561
 31
0.0
  0
LINE
  5
1AF
330
1F
100
AcDbEntity
  8
0
  6
Continuous
 62
     2
100
AcDbLine
 10
1676.39295755172
 20
-1339.299229456174
 30
0.0
 11
1676.213283894314
 21
-1339.132744090948
 31
0.0
  0
LINE
  5
1B0
330
1F
100
AcDbEntity
  8
0
  6
Continuous
 62
     2
100
AcDbLine
 10
1676.053120723017
 20
-1338.765986773561
 30
0.0
 11
1682.453120723017
 21
-1338.765986773561
 31
0.0
  0
LINE
  5
1B1
330
1F
100
AcDbEntity
  8
0
  6
Continuous
 62
     2
100
AcDbLine
 10
1682.453120723017
 20
-1340.032744090948
 30
0.0
 11
1676.39295755172
 21
-1340.032744090948
 31
0.0
  0
LINE
  5
1B2
330
1F
100
AcDbEntity
  8
0
  6
Continuous
 62
     2
100
AcDbLine
 10
1682.453120723017
 20
-1339.299229456174
 30
0.0
 11
1676.39295755172
 21
-1339.299229456174
 31
0.0
  0
LINE
  5
1B3
330
1F
100
AcDbEntity
  8
0
  6
Continuous
 62
     7
100
AcDbLine
 10
1676.053120723017
 20
-1330.515986773561
 30
0.0
 11
1682.453120723017
 21
-1330.515986773561
 31
0.0
  0
LINE
  5
1B4
330
1F
100
AcDbEntity
  8
0
  6
Continuous
 62
     7
100
AcDbLine
 10
1682.453120723017
 20
-1330.515986773561
 30
0.0
 11
1685.616665312233
 21
-1330.515986773561
 31
0.0
  0
LINE
  5
1B5
330
1F
100
AcDbEntity
  8
0
  6
Continuous
 62
     2
100
AcDbLine
 10
1682.453120723017
 20
-1338.765986773561
 30
0.0
 11
1682.453120723017
 21
-1330.515986773561
 31
0.0
  0
LINE
  5
1B6
330
1F
100
AcDbEntity
  8
0
  6
Continuous
 62
     2
100
AcDbLine
 10
1715.653120723017
 20
-1338.765986773561
 30
0.0
 11
1715.653120723017
 21
-1330.515986773561
 31
0.0
  0
LINE
  5
1B7
330
1F
100
AcDbEntity
  8
0
  6
Continuous
 62
     2
100
AcDbLine
 10
1682.453120723017
 20
-1339.299229456174
 30
0.0
 11
1682.453120723017
 21
-1339.132744090948
 31
0.0
  0
LINE
  5
1B8
330
1F
100
AcDbEntity
  8
0
  6
Continuous
 62
     2
100
AcDbLine
 10
1682.453120723017
 20
-1339.299229456174
 30
0.0
 11
1682.453120723017
 21
-1340.032744090948
 31
0.0
  0
LINE
  5
1B9
330
1F
100
AcDbEntity
  8
0
  6
Continuous
 62
     2
100
AcDbLine
 10
1682.453120723017
 20
-1339.132744090948
 30
0.0
 11
1682.453120723017
 21
-1338.765986773561
 31
0.0
  0
LINE
  5
1BA
330
1F
100
AcDbEntity
  8
0
  6
Continuous
 62
     2
100
AcDbLine
 10
1682.453120723017
 20
-1340.032744090948
 30
0.0
 11
1682.453120723017
 21
-1340.199229456173
 31
0.0
  0
LINE
  5
1BB
330
1F
100
AcDbEntity
  8
0
  6
Continuous
 62
     2
100
AcDbLine
 10
1715.653120723017
 20
-1338.765986773561
 30
0.0
 11
1705.115298549508
 21
-1338.765986773561
 31
0.0
  0
LINE
  5
1BC
330
1F
100
AcDbEntity
  8
0
  6
Continuous
 62
     2
100
AcDbLine
 10
1715.653120723017
 20
-1339.299229456174
 30
0.0
 11
1715.653120723017
 21
-1339.132744090948
 31
0.0
  0
LINE
  5
1BD
330
1F
100
AcDbEntity
  8
0
  6
Continuous
 62
     2
100
AcDbLine
 10
1715.653120723017
 20
-1339.132744090948
 30
0.0
 11
1715.653120723017
 21
-1338.765986773561
 31
0.0
  0
LINE
  5
1BE
330
1F
100
AcDbEntity
  8
0
  6
Continuous
 62
     2
100
AcDbLine
 10
1682.453120723017
 20
-1339.299229456174
 30
0.0
 11
1693.282126930386
 21
-1339.299229456174
 31
0.0
  0
LINE
  5
1BF
330
1F
100
AcDbEntity
  8
0
  6
Continuous
 62
     2
100
AcDbLine
 10
1715.653120723017
 20
-1340.032744090948
 30
0.0
 11
1715.653120723017
 21
-1340.199229456173
 31
0.0
  0
LINE
  5
1C0
330
1F
100
AcDbEntity
  8
0
  6
Continuous
 62
     2
100
AcDbLine
 10
1682.453120723017
 20
-1340.932744090948
 30
0.0
 11
1682.453120723017
 21
-1340.199229456173
 31
0.0
  0
LINE
  5
1C1
330
1F
100
AcDbEntity
  8
0
  6
Continuous
 62
     2
100
AcDbLine
 10
1715.653120723017
 20
-1340.932744090948
 30
0.0
 11
1715.653120723017
 21
-1340.199229456173
 31
0.0
  0
LINE
  5
1C2
330
1F
100
AcDbEntity
  8
0
  6
Continuous
 62
     2
100
AcDbLine
 10
1715.653120723017
 20
-1340.032744090948
 30
0.0
 11
1704.179330304875
 21
-1340.032744090948
 31
0.0
  0
LINE
  5
1C3
330
1F
100
AcDbEntity
  8
0
  6
Continuous
 62
     7
100
AcDbLine
 10
1676.322960360258
 20
-1355.773042009643
 30
0.0
 11
1676.053120723017
 21
-1354.765986773561
 31
0.0
  0
LINE
  5
1C4
330
1F
100
AcDbEntity
  8
0
  6
Continuous
 62
     7
100
AcDbLine
 10
1715.653120723017
 20
-1354.765986773561
 30
0.0
 11
1718.732932827842
 21
-1354.765986773561
 31
0.0
  0
LINE
  5
1C5
330
1F
100
AcDbEntity
  8
0
  6
Continuous
 62
     2
100
AcDbLine
 10
1679.373308618192
 20
-1355.565986773561
 30
0.0
 11
1718.732932827842
 21
-1355.565986773561
 31
0.0
  0
LINE
  5
1C6
330
1F
100
AcDbEntity
  8
0
  6
Continuous
 62
     7
100
AcDbLine
 10
1717.607546219631
 20
-1359.765986773561
 30
0.0
 11
1680.498695226403
 21
-1359.765986773561
 31
0.0
  0
LINE
  5
1C7
330
1F
100
AcDbEntity
  8
0
  6
Continuous
 62
     7
100
AcDbLine
 10
1678.45169650395
 20
-1360.765986773561
 30
0.0
 11
1719.654544942083
 21
-1360.765986773561
 31
0.0
  0
LINE
  5
1C8
330
1F
100
AcDbEntity
  8
0
  6
Continuous
 62
     2
100
AcDbLine
 10
1718.732932827842
 20
-1355.565986773561
 30
0.0
 11
1717.607546219631
 21
-1359.765986773561
 31
0.0
  0
LINE
  5
1C9
330
1F
100
AcDbEntity
  8
0
  6
Continuous
 62
     7
100
AcDbLine
 10
1685.899373075536
 20
-1382.265986773561
 30
0.0
 11
1699.053120723017
 21
-1382.265986773561
 31
0.0
  0
LINE
  5
1CA
330
1F
100
AcDbEntity
  8
0
  6
Continuous
 62
     7
100
AcDbLine
 10
1708.201207954783
 20
-1380.765986773561
 30
0.0
 11
1689.905033491251
 21
-1380.765986773561
 31
0.0
  0
LINE
  5
1CB
330
1F
100
AcDbEntity
  8
0
  6
Continuous
 62
     7
100
AcDbLine
 10
1694.369372224218
 20
-1375.765986773561
 30
0.0
 11
1694.369372224218
 21
-1377.765986773561
 31
0.0
  0
LINE
  5
1CC
102
{ACAD_REACTORS
330
3ED
102
}
330
1F
100
AcDbEntity
  8
0
  6
Continuous
 62
     2
100
AcDbLine
 10
1701.653120723017
 20
-1368.632948408123
 30
0.0
 11
1701.653120723017
 21
-1366.649025138999
 31
0.0
  0
LINE
  5
1CD
102
{ACAD_REACTORS
330
3EF
102
}
330
1F
100
AcDbEntity
  8
0
  6
Continuous
 62
     2
100
AcDbLine
 10
1699.653120723017
 20
-1366.64953781714
 30
0.0
 11
1699.653120723017
 21
-1368.680217258102
 31
0.0
  0
LINE
  5
1CE
102
{ACAD_REACTORS
330
3ED
102
}
330
1F
100
AcDbEntity
  8
0
  6
Continuous
 62
     2
100
AcDbLine
 10
1701.253120723017
 20
-1366.649025138999
 30
0.0
 11
1701.253120723017
 21
-1368.632948408123
 31
0.0
  0
LINE
  5
1CF
102
{ACAD_REACTORS
330
3F0
102
}
330
1F
100
AcDbEntity
  8
0
  6
Continuous
 62
     2
100
AcDbLine
 10
1697.253120723017
 20
-1366.53376869315
 30
0.0
 11
1697.253120723017
 21
-1367.440986773561
 31
0.0
  0
LINE
  5
1D0
102
{ACAD_REACTORS
330
3F0
102
}
330
1F
100
AcDbEntity
  8
0
  6
Continuous
 62
     2
100
AcDbLine
 10
1697.253120723017
 20
-1367.840986773561
 30
0.0
 11
1697.253120723017
 21
-1368.748204853972
 31
0.0
  0
LINE
  5
1D1
102
{ACAD_REACTORS
330
3EF
102
}
330
1F
100
AcDbEntity
  8
0
  6
Continuous
 62
     2
100
AcDbLine
 10
1698.966518182638
 20
-1367.790986773561
 30
0.0
 11
1698.453120723017
 21
-1368.680217258102
 31
0.0
  0
LINE
  5
1D2
102
{ACAD_REACTORS
330
3EE
102
}
330
1F
100
AcDbEntity
  8
0
  6
Continuous
 62
     2
100
AcDbLine
 10
1700.853120723017
 20
-1369.094486869661
 30
0.0
 11
1700.853120723017
 21
-1366.30299946238
 31
0.0
  0
LINE
  5
1D3
102
{ACAD_REACTORS
330
3F0
102
}
330
1F
100
AcDbEntity
  8
0
  6
Continuous
 62
     2
100
AcDbLine
 10
1697.353176232319
 20
-1366.014249560251
 30
0.0
 11
1696.553176232319
 21
-1366.475788021789
 31
0.0
  0
LINE
  5
1D4
102
{ACAD_REACTORS
330
3F0
102
}
330
1F
100
AcDbEntity
  8
0
  6
Continuous
 62
     2
100
AcDbLine
 10
1697.253120723017
 20
-1367.440986773561
 30
0.0
 11
1696.653120723017
 21
-1367.440986773561
 31
0.0
  0
LINE
  5
1D5
102
{ACAD_REACTORS
330
3F0
102
}
330
1F
100
AcDbEntity
  8
0
  6
Continuous
 62
     2
100
AcDbLine
 10
1696.653120723017
 20
-1367.840986773561
 30
0.0
 11
1697.253120723017
 21
-1367.840986773561
 31
0.0
  0
LINE
  5
1D6
102
{ACAD_REACTORS
330
3EF
102
}
330
1F
100
AcDbEntity
  8
0
  6
Continuous
 62
     2
100
AcDbLine
 10
1698.053120723017
 20
-1365.725948215922
 30
0.0
 11
1698.053120723017
 21
-1369.579717160781
 31
0.0
  0
LINE
  5
1D7
102
{ACAD_REACTORS
330
3F0
102
}
330
1F
100
AcDbEntity
  8
0
  6
Continuous
 62
     2
100
AcDbLine
 10
1696.753065213715
 20
-1366.822262256208
 30
0.0
 11
1697.253120723017
 21
-1366.53376869315
 31
0.0
  0
LINE
  5
1D8
102
{ACAD_REACTORS
330
3EF
102
}
330
1F
100
AcDbEntity
  8
0
  6
Continuous
 62
     2
100
AcDbLine
 10
1698.453120723017
 20
-1368.680217258102
 30
0.0
 11
1698.453120723017
 21
-1365.725948215922
 31
0.0
  0
LINE
  5
1D9
102
{ACAD_REACTORS
330
3F0
102
}
330
1F
100
AcDbEntity
  8
0
  6
Continuous
 62
     2
100
AcDbLine
 10
1697.653120723017
 20
-1369.094486869661
 30
0.0
 11
1697.653120723017
 21
-1366.18748667746
 31
0.0
  0
LINE
  5
1DA
102
{ACAD_REACTORS
330
3EF
102
}
330
1F
100
AcDbEntity
  8
0
  6
Continuous
 62
     2
100
AcDbLine
 10
1700.053120723017
 20
-1369.579717160781
 30
0.0
 11
1700.053120723017
 21
-1366.64953781714
 31
0.0
  0
LINE
  5
1DB
102
{ACAD_REACTORS
330
3EE
102
}
330
1F
100
AcDbEntity
  8
0
  6
Continuous
 62
     2
100
AcDbLine
 10
1700.453120723017
 20
-1366.30299946238
 30
0.0
 11
1700.453120723017
 21
-1369.094486869661
 31
0.0
  0
LINE
  5
1DC
102
{ACAD_REACTORS
330
3EE
102
}
330
1F
100
AcDbEntity
  8
0
  6
Continuous
 62
     2
100
AcDbLine
 10
1699.153176232319
 20
-1365.553031486978
 30
0.0
 11
1700.453120723017
 21
-1366.30299946238
 31
0.0
  0
LINE
  5
1DD
102
{ACAD_REACTORS
330
3EE
102
}
330
1F
100
AcDbEntity
  8
0
  6
Continuous
 62
     2
100
AcDbLine
 10
1700.653009704413
 20
-1365.956525227961
 30
0.0
 11
1699.353065213715
 21
-1365.206557252558
 31
0.0
  0
LINE
  5
1DE
102
{ACAD_REACTORS
330
3F1
102
}
330
1F
100
AcDbEntity
  8
0
  6
Continuous
 62
     2
100
AcDbLine
 10
1699.053120723017
 20
-1364.640986773561
 30
0.0
 11
1704.102981888102
 21
-1367.554368214956
 31
0.0
  0
LINE
  5
1DF
102
{ACAD_REACTORS
330
3EF
102
}
330
1F
100
AcDbEntity
  8
0
  6
Continuous
 62
     2
100
AcDbLine
 10
1699.653120723017
 20
-1368.680217258102
 30
0.0
 11
1699.139723263395
 21
-1367.790986773561
 31
0.0
  0
LINE
  5
1E0
102
{ACAD_REACTORS
330
3F1
102
}
330
1F
100
AcDbEntity
  8
0
  6
Continuous
 62
     2
100
AcDbLine
 10
1704.102981888102
 20
-1367.727605332165
 30
0.0
 11
1699.053120723017
 21
-1370.640986773561
 31
0.0
  0
LINE
  5
1E1
102
{ACAD_REACTORS
330
3EF
102
}
330
1F
100
AcDbEntity
  8
0
  6
Continuous
 62
     2
100
AcDbLine
 10
1699.053120723017
 20
-1368.440986773561
 30
0.0
 11
1699.756460512843
 21
-1369.659207024524
 31
0.0
  0
LINE
  5
1E2
102
{ACAD_REACTORS
330
3EF
102
}
330
1F
100
AcDbEntity
  8
0
  6
Continuous
 62
     2
100
AcDbLine
 10
1698.349780933191
 20
-1369.659207024524
 30
0.0
 11
1699.053120723017
 21
-1368.440986773561
 31
0.0
  0
LINE
  5
1E3
102
{ACAD_REACTORS
330
3F0
102
}
330
1F
100
AcDbEntity
  8
0
  6
Continuous
 62
     2
100
AcDbLine
 10
1696.553176232319
 20
-1368.806185525332
 30
0.0
 11
1697.353176232319
 21
-1369.267723986871
 31
0.0
  0
LINE
  5
1E4
102
{ACAD_REACTORS
330
3F0
102
}
330
1F
100
AcDbEntity
  8
0
  6
Continuous
 62
     2
100
AcDbLine
 10
1697.253120723017
 20
-1368.748204853972
 30
0.0
 11
1696.753065213715
 21
-1368.459711290913
 31
0.0
  0
LINE
  5
1E5
330
1F
100
AcDbEntity
  8
0
  6
Continuous
 62
     2
100
AcDbLine
 10
1712.784460755871
 20
-1377.765986773561
 30
0.0
 11
1703.736869221815
 21
-1377.765986773584
 31
0.0
  0
LINE
  5
1E6
330
1F
100
AcDbEntity
  8
0
  6
Continuous
 62
     7
100
AcDbLine
 10
1703.736869221815
 20
-1375.765986773561
 30
0.0
 11
1703.736869221815
 21
-1377.765986773584
 31
0.0
  0
LINE
  5
1E7
330
1F
100
AcDbEntity
  8
0
  6
Continuous
 62
     7
100
AcDbLine
 10
1712.784460755871
 20
-1380.765986773561
 30
0.0
 11
1712.206868370497
 21
-1380.765986773561
 31
0.0
  0
LINE
  5
1E8
330
1F
100
AcDbEntity
  8
0
  6
Continuous
 62
     7
100
AcDbLine
 10
1712.206868370497
 20
-1380.765986773561
 30
0.0
 11
1712.206868370497
 21
-1382.265986773561
 31
0.0
  0
LINE
  5
1E9
330
1F
100
AcDbEntity
  8
0
  6
Continuous
 62
     2
100
AcDbLine
 10
1712.784460755871
 20
-1377.765986773561
 30
0.0
 11
1712.784460755871
 21
-1380.765986773561
 31
0.0
  0
LINE
  5
1EA
330
1F
100
AcDbEntity
  8
0
  6
Continuous
 62
     7
100
AcDbLine
 10
1712.206868370497
 20
-1380.765986773561
 30
0.0
 11
1708.201207954783
 21
-1380.765986773561
 31
0.0
  0
LINE
  5
1EB
330
1F
100
AcDbEntity
  8
0
  6
Continuous
 62
     7
100
AcDbLine
 10
1712.206868370497
 20
-1382.265986773561
 30
0.0
 11
1699.053120723017
 21
-1382.265986773561
 31
0.0
  0
LINE
  5
1EC
102
{ACAD_REACTORS
330
3F1
102
}
330
1F
100
AcDbEntity
  8
0
  6
Continuous
 62
     2
100
AcDbLine
 10
1699.053120723017
 20
-1370.871884173865
 30
0.0
 11
1704.2029263788
 21
-1367.900842449375
 31
0.0
  0
LINE
  5
1ED
102
{ACAD_REACTORS
330
3F1
102
}
330
1F
100
AcDbEntity
  8
0
  6
Continuous
 62
     2
100
AcDbLine
 10
1704.2029263788
 20
-1367.381131097746
 30
0.0
 11
1699.053120723017
 21
-1364.410089373256
 31
0.0
  0
LINE
  5
1EE
102
{ACAD_REACTORS
330
3F1
102
}
330
1F
100
AcDbEntity
  8
0
  6
Continuous
 62
     2
100
AcDbLine
 10
1694.003259557932
 20
-1367.554368214956
 30
0.0
 11
1699.053120723017
 21
-1364.640986773561
 31
0.0
  0
LINE
  5
1EF
102
{ACAD_REACTORS
330
3F1
102
}
330
1F
100
AcDbEntity
  8
0
  6
Continuous
 62
     2
100
AcDbLine
 10
1699.053120723017
 20
-1370.871884173865
 30
0.0
 11
1693.903315067234
 21
-1367.900842449375
 31
0.0
  0
LINE
  5
1F0
102
{ACAD_REACTORS
330
3F1
102
}
330
1F
100
AcDbEntity
  8
0
  6
Continuous
 62
     2
100
AcDbLine
 10
1693.903315067234
 20
-1367.381131097746
 30
0.0
 11
1699.053120723017
 21
-1364.410089373256
 31
0.0
  0
LINE
  5
1F1
102
{ACAD_REACTORS
330
3F1
102
}
330
1F
100
AcDbEntity
  8
0
  6
Continuous
 62
     2
100
AcDbLine
 10
1699.053120723017
 20
-1370.640986773561
 30
0.0
 11
1694.003259557932
 21
-1367.727605332165
 31
0.0
  0
LINE
  5
1F2
330
1F
100
AcDbEntity
  8
0
  6
Continuous
 62
     7
100
AcDbLine
 10
1676.322960360258
 20
-1355.773042009643
 30
0.0
 11
1682.424003211295
 21
-1378.542443908869
 31
0.0
  0
LINE
  5
1F3
330
1F
100
AcDbEntity
  8
1
  6
Continuous
 62
     7
100
AcDbLine
 10
1685.899373075536
 20
-1382.265986773561
 30
0.0
 11
1684.956337274988
 21
-1382.265986773561
 31
0.0
  0
LINE
  5
1F4
330
1F
100
AcDbEntity
  8
1
  6
Continuous
 62
     7
100
AcDbLine
 10
1712.206868370497
 20
-1382.265986773561
 30
0.0
 11
1713.149904171045
 21
-1382.265986773561
 31
0.0
  0
LINE
  5
1F5
330
1F
100
AcDbEntity
  8
1
  6
Continuous
 62
     7
100
AcDbLine
 10
1791.328988815591
 20
-1395.765986773561
 30
0.0
 11
1791.328988815591
 21
-1382.265986773561
 31
0.0
  0
LINE
  5
1F6
330
1F
100
AcDbEntity
  8
1
  6
Continuous
 62
     7
100
AcDbLine
 10
1763.135421919535
 20
-1395.765986773561
 30
0.0
 11
1763.135421919535
 21
-1382.265986773561
 31
0.0
  0
LINE
  5
1F7
330
1F
100
AcDbEntity
  8
1
  6
Continuous
 62
     7
100
AcDbLine
 10
1791.328988815591
 20
-1382.265986773561
 30
0.0
 11
1790.385953015044
 21
-1382.265986773561
 31
0.0
  0
LINE
  5
1F8
330
1F
100
AcDbEntity
  8
1
  6
Continuous
 62
     7
100
AcDbLine
 10
1763.135421919535
 20
-1382.265986773561
 30
0.0
 11
1764.078457720083
 21
-1382.265986773561
 31
0.0
  0
LINE
  5
1F9
330
1F
100
AcDbEntity
  8
0
  6
Continuous
 62
     7
100
AcDbLine
 10
1763.857205367563
 20
-1337.765986773561
 30
0.0
 11
1763.857205367563
 21
-1331.765986773561
 31
0.0
  0
LINE
  5
1FA
330
1F
100
AcDbEntity
  8
0
  6
Continuous
 62
     7
100
AcDbLine
 10
1762.982205367563
 20
-1335.913034386317
 30
0.0
 11
1762.982205367564
 21
-1333.26598677356
 31
0.0
  0
LINE
  5
1FB
330
1F
100
AcDbEntity
  8
0
  6
Continuous
 62
     7
100
AcDbLine
 10
1762.982205367564
 20
-1337.26598677356
 30
0.0
 11
1762.982205367563
 21
-1335.913034386317
 31
0.0
  0
LINE
  5
1FC
330
1F
100
AcDbEntity
  8
0
  6
Continuous
 62
     2
100
AcDbLine
 10
1715.653120723017
 20
-1345.965986773561
 30
0.0
 11
1722.053120723017
 21
-1345.965986773561
 31
0.0
  0
LINE
  5
1FD
330
1F
100
AcDbEntity
  8
0
  6
Continuous
 62
     2
100
AcDbLine
 10
1722.053120723017
 20
-1338.765986773561
 30
0.0
 11
1715.653120723017
 21
-1338.765986773561
 31
0.0
  0
LINE
  5
1FE
330
1F
100
AcDbEntity
  8
1
  6
Continuous
 62
     7
100
AcDbLine
 10
1763.782205367563
 20
-1374.765986773561
 30
0.0
 11
1763.982205367563
 21
-1374.765986773561
 31
0.0
  0
LINE
  5
1FF
330
1F
100
AcDbEntity
  8
1
  6
Continuous
 62
     7
100
AcDbLine
 10
1763.882205367563
 20
-1360.765986773561
 30
0.0
 11
1763.982205367563
 21
-1360.765986773561
 31
0.0
  0
LINE
  5
200
330
1F
100
AcDbEntity
  8
1
  6
Continuous
 62
     7
100
AcDbLine
 10
1722.053120723017
 20
-1354.765986773561
 30
0.0
 11
1722.053120723017
 21
-1355.265986773561
 31
0.0
  0
LINE
  5
201
330
1F
100
AcDbEntity
  8
1
  6
Continuous
 62
     7
100
AcDbLine
 10
1676.053120723017
 20
-1354.765986773561
 30
0.0
 11
1676.053120723017
 21
-1355.565986773561
 31
0.0
  0
LINE
  5
202
330
1F
100
AcDbEntity
  8
0
  6
Continuous
 62
     7
100
AcDbLine
 10
1704.194861673318
 20
-1330.515986773561
 30
0.0
 11
1715.653120723017
 21
-1330.515986773561
 31
0.0
  0
LINE
  5
203
330
1F
100
AcDbEntity
  8
0
  6
Continuous
 62
     2
100
AcDbLine
 10
1692.816746265814
 20
-1338.765986773561
 30
0.0
 11
1682.453120723017
 21
-1338.765986773561
 31
0.0
  0
LINE
  5
204
330
1F
100
AcDbEntity
  8
0
  6
Continuous
 62
     7
100
AcDbLine
 10
1668.006130016684
 20
-1308.148467516102
 30
0.0
 11
1669.614823347187
 21
-1306.7986135358
 31
0.0
  0
LINE
  5
205
330
1F
100
AcDbEntity
  8
0
  6
Continuous
 62
     7
100
AcDbLine
 10
1670.257610956901
 20
-1307.564657978896
 30
0.0
 11
1670.261198738372
 21
-1307.523649449024
 31
0.0
  0
LINE
  5
206
330
1F
100
AcDbEntity
  8
0
  6
Continuous
 62
     7
100
AcDbLine
 10
1670.299431011322
 20
-1307.568316759566
 30
0.0
 11
1670.257610956901
 21
-1307.564657978896
 31
0.0
  0
LINE
  5
207
330
1F
100
AcDbEntity
  8
0
  6
Continuous
 62
     7
100
AcDbLine
 10
1670.282262323587
 20
-1307.282891568335
 30
0.0
 11
1670.261198738372
 21
-1307.523649449024
 31
0.0
  0
LINE
  5
208
330
1F
100
AcDbEntity
  8
0
  6
Continuous
 62
     7
100
AcDbLine
 10
1669.896589738535
 20
-1306.823264879534
 30
0.0
 11
1670.282262323587
 21
-1307.282891568335
 31
0.0
  0
LINE
  5
209
330
1F
100
AcDbEntity
  8
0
  6
Continuous
 62
     7
100
AcDbLine
 10
1671.900820502868
 20
-1309.471195049667
 30
0.0
 11
1671.921370728288
 21
-1309.236304898288
 31
0.0
  0
LINE
  5
20A
330
1F
100
AcDbEntity
  8
0
  6
Continuous
 62
     7
100
AcDbLine
 10
1671.632116303929
 20
-1308.891584898885
 30
0.0
 11
1671.921370728288
 21
-1309.236304898288
 31
0.0
  0
LINE
  5
20B
330
1F
100
AcDbEntity
  8
0
  6
Continuous
 62
     7
100
AcDbLine
 10
1671.39722615255
 20
-1308.871034673465
 30
0.0
 11
1671.900820502868
 21
-1309.471195049667
 31
0.0
  0
LINE
  5
20C
330
1F
100
AcDbEntity
  8
0
  6
Continuous
 62
     7
100
AcDbLine
 10
1668.909097943975
 20
-1309.535727552861
 30
0.0
 11
1671.851254052374
 21
-1313.042052665018
 31
0.0
  0
LINE
  5
20D
330
1F
100
AcDbEntity
  8
0
  6
Continuous
 62
     7
100
AcDbLine
 10
1671.085746835695
 20
-1308.240447122234
 30
0.0
 11
1671.375001260054
 21
-1308.585167121637
 31
0.0
  0
LINE
  5
20E
330
1F
100
AcDbEntity
  8
0
  6
Continuous
 62
     7
100
AcDbLine
 10
1670.850856684316
 20
-1308.219896896814
 30
0.0
 11
1671.354451034635
 21
-1308.820057273016
 31
0.0
  0
LINE
  5
20F
330
1F
100
AcDbEntity
  8
0
  6
Continuous
 62
     7
100
AcDbLine
 10
1671.354451034635
 20
-1308.820057273016
 30
0.0
 11
1671.350349893368
 21
-1308.866933532198
 31
0.0
  0
LINE
  5
210
330
1F
100
AcDbEntity
  8
0
  6
Continuous
 62
     7
100
AcDbLine
 10
1669.062306934017
 20
-1309.355406342769
 30
0.0
 11
1670.671000270616
 21
-1308.005552357352
 31
0.0
  0
LINE
  5
211
330
1F
100
AcDbEntity
  8
0
  6
Continuous
 62
     7
100
AcDbLine
 10
1670.671000270616
 20
-1308.005552357352
 30
0.0
 11
1670.808081566401
 21
-1308.168919496365
 31
0.0
  0
LINE
  5
212
330
1F
100
AcDbEntity
  8
0
  6
Continuous
 62
     7
100
AcDbLine
 10
1670.808081566401
 20
-1308.168919496365
 30
0.0
 11
1670.803980425134
 21
-1308.215795755547
 31
0.0
  0
LINE
  5
213
330
1F
100
AcDbEntity
  8
0
  6
Continuous
 62
     7
100
AcDbLine
 10
1671.354451034635
 20
-1308.820057273016
 30
0.0
 11
1671.375001260054
 21
-1308.585167121637
 31
0.0
  0
LINE
  5
214
330
1F
100
AcDbEntity
  8
0
  6
Continuous
 62
     7
100
AcDbLine
 10
1671.085746835695
 20
-1308.240447122234
 30
0.0
 11
1670.850856684316
 21
-1308.219896896814
 31
0.0
  0
LINE
  5
215
330
1F
100
AcDbEntity
  8
0
  6
Continuous
 62
     7
100
AcDbLine
 10
1670.803980425134
 20
-1308.215795755547
 30
0.0
 11
1670.850856684316
 21
-1308.219896896814
 31
0.0
  0
LINE
  5
216
330
1F
100
AcDbEntity
  8
0
  6
Continuous
 62
     7
100
AcDbLine
 10
1671.632116303929
 20
-1308.891584898885
 30
0.0
 11
1671.39722615255
 21
-1308.871034673465
 31
0.0
  0
LINE
  5
217
330
1F
100
AcDbEntity
  8
0
  6
Continuous
 62
     7
100
AcDbLine
 10
1671.350349893368
 20
-1308.866933532198
 30
0.0
 11
1671.39722615255
 21
-1308.871034673465
 31
0.0
  0
LINE
  5
218
330
1F
100
AcDbEntity
  8
0
  6
Continuous
 62
     7
100
AcDbLine
 10
1670.824209086156
 20
-1307.928758569622
 30
0.0
 11
1670.828631791821
 21
-1307.934029344986
 31
0.0
  0
LINE
  5
219
330
1F
100
AcDbEntity
  8
0
  6
Continuous
 62
     7
100
AcDbLine
 10
1670.808081566401
 20
-1308.168919496365
 30
0.0
 11
1670.828631791821
 21
-1307.934029344986
 31
0.0
  0
LINE
  5
21A
330
1F
100
AcDbEntity
  8
0
  6
Continuous
 62
     7
100
AcDbLine
 10
1670.539377367462
 20
-1307.589309345582
 30
0.0
 11
1670.824209086156
 21
-1307.928758569622
 31
0.0
  0
LINE
  5
21B
330
1F
100
AcDbEntity
  8
0
  6
Continuous
 62
     7
100
AcDbLine
 10
1670.299431011322
 20
-1307.568316759566
 30
0.0
 11
1670.539377367462
 21
-1307.589309345582
 31
0.0
  0
LINE
  5
21C
330
1F
100
AcDbEntity
  8
0
  6
Continuous
 62
     7
100
AcDbLine
 10
1668.909097943975
 20
-1309.535727552861
 30
0.0
 11
1667.98147863457
 21
-1308.430233908318
 31
0.0
  0
LINE
  5
21D
330
1F
100
AcDbEntity
  8
0
  6
Continuous
 62
     7
100
AcDbLine
 10
1669.062306934017
 20
-1309.355406342769
 30
0.0
 11
1672.004463019014
 21
-1312.861731384288
 31
0.0
  0
LINE
  5
21E
330
1F
100
AcDbEntity
  8
0
  6
Continuous
 62
     7
100
AcDbLine
 10
1672.489965089017
 20
-1310.173310226767
 30
0.0
 11
1674.665959061619
 21
-1312.766559010977
 31
0.0
  0
LINE
  5
21F
330
1F
100
AcDbEntity
  8
0
  6
Continuous
 62
     7
100
AcDbLine
 10
1672.724855240396
 20
-1310.193860452187
 30
0.0
 11
1674.819165166136
 21
-1312.689761830193
 31
0.0
  0
LINE
  5
220
330
1F
100
AcDbEntity
  8
0
  6
Continuous
 62
     7
100
AcDbLine
 10
1672.724855240396
 20
-1310.193860452187
 30
0.0
 11
1672.489965089017
 21
-1310.173310226767
 31
0.0
  0
LINE
  5
221
330
1F
100
AcDbEntity
  8
0
  6
Continuous
 62
     7
100
AcDbLine
 10
1671.900820502868
 20
-1309.471195049667
 30
0.0
 11
1671.896719361601
 21
-1309.518071308849
 31
0.0
  0
LINE
  5
222
330
1F
100
AcDbEntity
  8
0
  6
Continuous
 62
     7
100
AcDbLine
 10
1671.896719361601
 20
-1309.518071308849
 30
0.0
 11
1671.943595620783
 21
-1309.522172450116
 31
0.0
  0
LINE
  5
223
330
1F
100
AcDbEntity
  8
0
  6
Continuous
 62
     7
100
AcDbLine
 10
1671.943595620783
 20
-1309.522172450116
 30
0.0
 11
1672.447189971102
 21
-1310.122332826319
 31
0.0
  0
LINE
  5
224
330
1F
100
AcDbEntity
  8
0
  6
Continuous
 62
     7
100
AcDbLine
 10
1672.447189971102
 20
-1310.122332826319
 30
0.0
 11
1672.443088829835
 21
-1310.1692090855
 31
0.0
  0
LINE
  5
225
330
1F
100
AcDbEntity
  8
0
  6
Continuous
 62
     7
100
AcDbLine
 10
1672.443088829835
 20
-1310.1692090855
 30
0.0
 11
1672.489965089017
 21
-1310.173310226767
 31
0.0
  0
LINE
  5
226
330
1F
100
AcDbEntity
  8
0
  6
Continuous
 62
     7
100
AcDbLine
 10
1672.447189971102
 20
-1310.122332826319
 30
0.0
 11
1672.467740196521
 21
-1309.887442674939
 31
0.0
  0
LINE
  5
227
330
1F
100
AcDbEntity
  8
0
  6
Continuous
 62
     7
100
AcDbLine
 10
1672.178485772162
 20
-1309.542722675536
 30
0.0
 11
1672.467740196521
 21
-1309.887442674939
 31
0.0
  0
LINE
  5
228
330
1F
100
AcDbEntity
  8
0
  6
Continuous
 62
     7
100
AcDbLine
 10
1672.178485772162
 20
-1309.542722675536
 30
0.0
 11
1671.943595620783
 21
-1309.522172450116
 31
0.0
  0
LINE
  5
229
330
1F
100
AcDbEntity
  8
0
  6
Continuous
 62
     7
100
AcDbLine
 10
1671.553120723017
 20
-1323.064456001911
 30
0.0
 11
1671.553120723017
 21
-1321.66445600191
 31
0.0
  0
LINE
  5
22A
330
1F
100
AcDbEntity
  8
0
  6
Continuous
 62
     7
100
AcDbLine
 10
1671.553120723017
 20
-1321.66445600191
 30
0.0
 11
1674.553120723017
 21
-1321.66445600191
 31
0.0
  0
LINE
  5
22B
330
1F
100
AcDbEntity
  8
0
  6
Continuous
 62
     7
100
AcDbLine
 10
1674.553120723017
 20
-1321.66445600191
 30
0.0
 11
1674.553120723017
 21
-1313.564456001911
 31
0.0
  0
LINE
  5
22C
330
1F
100
AcDbEntity
  8
0
  6
Continuous
 62
     7
100
AcDbLine
 10
1671.753120723016
 20
-1321.464456001911
 30
0.0
 11
1672.553120723017
 21
-1321.464456001911
 31
0.0
  0
LINE
  5
22D
330
1F
100
AcDbEntity
  8
0
  6
Continuous
 62
     7
100
AcDbLine
 10
1671.553120723017
 20
-1323.064456001911
 30
0.0
 11
1674.553120723017
 21
-1323.064456001911
 31
0.0
  0
LINE
  5
22E
330
1F
100
AcDbEntity
  8
0
  6
Continuous
 62
     7
100
AcDbLine
 10
1693.779173757883
 20
-1339.868755875847
 30
0.0
 11
1680.906711471192
 21
-1325.119225342808
 31
0.0
  0
LINE
  5
22F
330
1F
100
AcDbEntity
  8
0
  6
Continuous
 62
     7
100
AcDbLine
 10
1697.053120723017
 20
-1322.965986773561
 30
0.0
 11
1697.053120723017
 21
-1326.265986773561
 31
0.0
  0
LINE
  5
230
330
1F
100
AcDbEntity
  8
0
  6
Continuous
 62
     7
100
AcDbLine
 10
1695.88719345156
 20
-1309.839631034516
 30
0.0
 11
1681.985957423942
 21
-1313.564456001911
 31
0.0
  0
LINE
  5
231
330
1F
100
AcDbEntity
  8
0
  6
Continuous
 62
     7
100
AcDbLine
 10
1675.053120723017
 20
-1313.33254943988
 30
0.0
 11
1675.053120723017
 21
-1313.564456001911
 31
0.0
  0
LINE
  5
232
330
1F
100
AcDbEntity
  8
0
  6
Continuous
 62
     7
100
AcDbLine
 10
1674.853120784609
 20
-1313.28078583487
 30
0.0
 11
1674.853120723017
 21
-1313.564456001911
 31
0.0
  0
LINE
  5
233
330
1F
100
AcDbEntity
  8
0
  6
Continuous
 62
     7
100
AcDbLine
 10
1672.553120723017
 20
-1319.047224801586
 30
0.0
 11
1672.253120723016
 21
-1319.047224801586
 31
0.0
  0
LINE
  5
234
330
1F
100
AcDbEntity
  8
0
  6
Continuous
 62
     7
100
AcDbLine
 10
1672.553120723017
 20
-1313.805098394704
 30
0.0
 11
1672.553120723017
 21
-1313.564456001911
 31
0.0
  0
LINE
  5
235
330
1F
100
AcDbEntity
  8
0
  6
Continuous
 62
     7
100
AcDbLine
 10
1672.553120723017
 20
-1321.464456001911
 30
0.0
 11
1673.144717371697
 21
-1321.464456001862
 31
0.0
  0
LINE
  5
236
330
1F
100
AcDbEntity
  8
0
  6
Continuous
 62
     7
100
AcDbLine
 10
1672.553120723017
 20
-1314.970415494131
 30
0.0
 11
1672.553120723017
 21
-1313.805098394704
 31
0.0
  0
LINE
  5
237
330
1F
100
AcDbEntity
  8
0
  6
Continuous
 62
     7
100
AcDbLine
 10
1672.553120723017
 20
-1316.296116454873
 30
0.0
 11
1672.553120723017
 21
-1314.970415494131
 31
0.0
  0
LINE
  5
238
330
1F
100
AcDbEntity
  8
0
  6
Continuous
 62
     7
100
AcDbLine
 10
1672.553120723017
 20
-1319.757911255482
 30
0.0
 11
1672.553120723017
 21
-1319.422224801586
 31
0.0
  0
LINE
  5
239
330
1F
100
AcDbEntity
  8
0
  6
Continuous
 62
     7
100
AcDbLine
 10
1672.553120723017
 20
-1321.464456001911
 30
0.0
 11
1672.553120723017
 21
-1319.757911255482
 31
0.0
  0
LINE
  5
23A
330
1F
100
AcDbEntity
  8
0
  6
Continuous
 62
     7
100
AcDbLine
 10
1672.553120723017
 20
-1319.422224801586
 30
0.0
 11
1672.553120723017
 21
-1319.047224801586
 31
0.0
  0
LINE
  5
23B
330
1F
100
AcDbEntity
  8
0
  6
Continuous
 62
     7
100
AcDbLine
 10
1672.553120723017
 20
-1319.047224801586
 30
0.0
 11
1672.553120723017
 21
-1318.359724801586
 31
0.0
  0
LINE
  5
23C
330
1F
100
AcDbEntity
  8
0
  6
Continuous
 62
     7
100
AcDbLine
 10
1672.553120723017
 20
-1318.359724801586
 30
0.0
 11
1672.553120723017
 21
-1317.984724801586
 31
0.0
  0
LINE
  5
23D
330
1F
100
AcDbEntity
  8
0
  6
Continuous
 62
     7
100
AcDbLine
 10
1672.553120723017
 20
-1317.984724801586
 30
0.0
 11
1672.553120723017
 21
-1317.297224801586
 31
0.0
  0
LINE
  5
23E
330
1F
100
AcDbEntity
  8
0
  6
Continuous
 62
     7
100
AcDbLine
 10
1672.553120723017
 20
-1317.297224801586
 30
0.0
 11
1672.553120723017
 21
-1316.922224801586
 31
0.0
  0
LINE
  5
23F
330
1F
100
AcDbEntity
  8
0
  6
Continuous
 62
     7
100
AcDbLine
 10
1672.553120723017
 20
-1316.922224801586
 30
0.0
 11
1672.553120723017
 21
-1316.296116454873
 31
0.0
  0
LINE
  5
240
330
1F
100
AcDbEntity
  8
0
  6
Continuous
 62
     7
100
AcDbLine
 10
1674.553120723017
 20
-1323.064456001911
 30
0.0
 11
1674.553120723017
 21
-1321.66445600191
 31
0.0
  0
LINE
  5
241
330
1F
100
AcDbEntity
  8
0
  6
Continuous
 62
     7
100
AcDbLine
 10
1674.553120723017
 20
-1323.064456001911
 30
0.0
 11
1676.386185501077
 21
-1323.064456001911
 31
0.0
  0
LINE
  5
242
330
1F
100
AcDbEntity
  8
0
  6
Continuous
 62
     7
100
AcDbLine
 10
1675.053120723017
 20
-1313.564456001911
 30
0.0
 11
1674.853120723017
 21
-1313.564456001911
 31
0.0
  0
LINE
  5
243
330
1F
100
AcDbEntity
  8
0
  6
Continuous
 62
     7
100
AcDbLine
 10
1674.853120723017
 20
-1313.564456001911
 30
0.0
 11
1674.553120723017
 21
-1313.564456001911
 31
0.0
  0
LINE
  5
244
330
1F
100
AcDbEntity
  8
0
  6
Continuous
 62
     7
100
AcDbLine
 10
1672.553120723017
 20
-1313.564456001911
 30
0.0
 11
1674.553120723017
 21
-1313.564456001911
 31
0.0
  0
LINE
  5
245
330
1F
100
AcDbEntity
  8
0
  6
Continuous
 62
     7
100
AcDbLine
 10
1681.985957423942
 20
-1313.564456001911
 30
0.0
 11
1675.053120723017
 21
-1313.564456001911
 31
0.0
  0
LINE
  5
246
330
1F
100
AcDbEntity
  8
0
  6
Continuous
 62
     7
100
AcDbLine
 10
1672.553120723017
 20
-1319.757911255482
 30
0.0
 11
1672.253120723016
 21
-1319.757911255482
 31
0.0
  0
LINE
  5
247
330
1F
100
AcDbEntity
  8
0
  6
Continuous
 62
     7
100
AcDbLine
 10
1672.253120723016
 20
-1319.422224801586
 30
0.0
 11
1672.253120723016
 21
-1319.757911255482
 31
0.0
  0
LINE
  5
248
330
1F
100
AcDbEntity
  8
0
  6
Continuous
 62
     7
100
AcDbLine
 10
1672.253120723016
 20
-1316.296116454873
 30
0.0
 11
1672.253120723016
 21
-1316.922224801586
 31
0.0
  0
LINE
  5
249
330
1F
100
AcDbEntity
  8
0
  6
Continuous
 62
     7
100
AcDbLine
 10
1672.553120723017
 20
-1316.296116454873
 30
0.0
 11
1672.253120723016
 21
-1316.296116454873
 31
0.0
  0
LINE
  5
24A
330
1F
100
AcDbEntity
  8
0
  6
Continuous
 62
     7
100
AcDbLine
 10
1672.553120723017
 20
-1319.422224801586
 30
0.0
 11
1672.253120723016
 21
-1319.422224801586
 31
0.0
  0
LINE
  5
24B
330
1F
100
AcDbEntity
  8
0
  6
Continuous
 62
     7
100
AcDbLine
 10
1672.253120723016
 20
-1319.047224801586
 30
0.0
 11
1672.253120723016
 21
-1319.422224801586
 31
0.0
  0
LINE
  5
24C
330
1F
100
AcDbEntity
  8
0
  6
Continuous
 62
     7
100
AcDbLine
 10
1672.253120723016
 20
-1317.297224801586
 30
0.0
 11
1672.253120723016
 21
-1317.984724801586
 31
0.0
  0
LINE
  5
24D
330
1F
100
AcDbEntity
  8
0
  6
Continuous
 62
     7
100
AcDbLine
 10
1672.253120723016
 20
-1317.984724801586
 30
0.0
 11
1672.253120723016
 21
-1318.359724801586
 31
0.0
  0
LINE
  5
24E
330
1F
100
AcDbEntity
  8
0
  6
Continuous
 62
     7
100
AcDbLine
 10
1672.253120723016
 20
-1318.359724801586
 30
0.0
 11
1672.253120723016
 21
-1319.047224801586
 31
0.0
  0
LINE
  5
24F
330
1F
100
AcDbEntity
  8
0
  6
Continuous
 62
     7
100
AcDbLine
 10
1672.553120723017
 20
-1318.359724801586
 30
0.0
 11
1672.253120723016
 21
-1318.359724801586
 31
0.0
  0
LINE
  5
250
330
1F
100
AcDbEntity
  8
0
  6
Continuous
 62
     7
100
AcDbLine
 10
1672.553120723017
 20
-1317.984724801586
 30
0.0
 11
1672.253120723016
 21
-1317.984724801586
 31
0.0
  0
LINE
  5
251
330
1F
100
AcDbEntity
  8
0
  6
Continuous
 62
     7
100
AcDbLine
 10
1672.553120723017
 20
-1317.297224801586
 30
0.0
 11
1672.253120723016
 21
-1317.297224801586
 31
0.0
  0
LINE
  5
252
330
1F
100
AcDbEntity
  8
0
  6
Continuous
 62
     7
100
AcDbLine
 10
1672.253120723016
 20
-1317.297224801586
 30
0.0
 11
1672.253120723016
 21
-1316.922224801586
 31
0.0
  0
LINE
  5
253
330
1F
100
AcDbEntity
  8
0
  6
Continuous
 62
     7
100
AcDbLine
 10
1672.553120723017
 20
-1316.922224801586
 30
0.0
 11
1672.253120723016
 21
-1316.922224801586
 31
0.0
  0
LINE
  5
254
330
1F
100
AcDbEntity
  8
0
  6
Continuous
 62
     2
100
AcDbLine
 10
1704.774392737451
 20
-1339.299229456174
 30
0.0
 11
1715.653120723017
 21
-1339.299229456174
 31
0.0
  0
LINE
  5
255
330
1F
100
AcDbEntity
  8
0
  6
Continuous
 62
     2
100
AcDbLine
 10
1702.922652969393
 20
-1341.099229456174
 30
0.0
 11
1715.653120723017
 21
-1341.099229456174
 31
0.0
  0
LINE
  5
256
330
1F
100
AcDbEntity
  8
0
  6
Continuous
 62
     2
100
AcDbLine
 10
1701.477517211742
 20
-1341.832744090948
 30
0.0
 11
1715.653120723017
 21
-1341.832744090948
 31
0.0
  0
LINE
  5
257
330
1F
100
AcDbEntity
  8
0
  6
Continuous
 62
     2
100
AcDbLine
 10
1693.926911141158
 20
-1340.032744090948
 30
0.0
 11
1682.453120723017
 21
-1340.032744090948
 31
0.0
  0
LINE
  5
258
330
1F
100
AcDbEntity
  8
0
  6
Continuous
 62
     7
100
AcDbLine
 10
1789.104393909817
 20
-1309.355406340245
 30
0.0
 11
1790.043910878311
 21
-1312.861731401235
 31
0.0
  0
LINE
  5
259
330
1F
100
AcDbEntity
  8
0
  6
Continuous
 62
     7
100
AcDbLine
 10
1760.482205367563
 20
-1342.265986773561
 30
0.0
 11
1760.482205367564
 21
-1339.868755875847
 31
0.0
  0
LINE
  5
25A
330
1F
100
AcDbEntity
  8
0
  6
Continuous
 62
     7
100
AcDbLine
 10
1760.482205367563
 20
-1342.265986773561
 30
0.0
 11
1762.982205367563
 21
-1342.265986773561
 31
0.0
  0
LINE
  5
25B
330
1F
100
AcDbEntity
  8
0
  6
Continuous
 62
     2
100
AcDbLine
 10
1777.232205367564
 20
-1316.296116454873
 30
0.0
 11
1779.857080440805
 21
-1317.810467458665
 31
0.0
  0
LINE
  5
25C
330
1F
100
AcDbEntity
  8
0
  6
Continuous
 62
     2
100
AcDbLine
 10
1777.532205367564
 20
-1317.507398612907
 30
0.0
 11
1777.532205367564
 21
-1318.984533133997
 31
0.0
  0
LINE
  5
25D
330
1F
100
AcDbEntity
  8
0
  6
Continuous
 62
     2
100
AcDbLine
 10
1776.732205367564
 20
-1317.057648661567
 30
0.0
 11
1776.732205367564
 21
-1318.522738333388
 31
0.0
  0
LINE
  5
25E
330
1F
100
AcDbEntity
  8
0
  6
Continuous
 62
     2
100
AcDbLine
 10
1776.880535472652
 20
-1317.017903729696
 30
0.0
 11
1777.232205367564
 21
-1317.627013855178
 31
0.0
  0
LINE
  5
25F
330
1F
100
AcDbEntity
  8
0
  6
Continuous
 62
     2
100
AcDbLine
 10
1777.583875262477
 20
-1317.017903729696
 30
0.0
 11
1777.232205367564
 21
-1317.627013855178
 31
0.0
  0
LINE
  5
260
330
1F
100
AcDbEntity
  8
0
  6
Continuous
 62
     2
100
AcDbLine
 10
1777.532205367564
 20
-1317.507398612907
 30
0.0
 11
1777.275506637754
 21
-1317.952013855178
 31
0.0
  0
LINE
  5
261
330
1F
100
AcDbEntity
  8
0
  6
Continuous
 62
     2
100
AcDbLine
 10
1776.532205367564
 20
-1317.300263807127
 30
0.0
 11
1776.532205367564
 21
-1318.696007510768
 31
0.0
  0
LINE
  5
262
330
1F
100
AcDbEntity
  8
0
  6
Continuous
 62
     2
100
AcDbLine
 10
1776.132205367565
 20
-1317.531033037897
 30
0.0
 11
1776.132205367565
 21
-1318.522994672459
 31
0.0
  0
LINE
  5
263
330
1F
100
AcDbEntity
  8
0
  6
Continuous
 62
     2
100
AcDbLine
 10
1777.232205367564
 20
-1319.757911255482
 30
0.0
 11
1774.607330294324
 21
-1318.24356025169
 31
0.0
  0
LINE
  5
264
330
1F
100
AcDbEntity
  8
0
  6
Continuous
 62
     2
100
AcDbLine
 10
1777.232205367564
 20
-1319.527013855178
 30
0.0
 11
1774.707274785022
 21
-1318.07032313448
 31
0.0
  0
LINE
  5
265
330
1F
100
AcDbEntity
  8
0
  6
Continuous
 62
     2
100
AcDbLine
 10
1776.532205367564
 20
-1318.696007510768
 30
0.0
 11
1777.182177612912
 21
-1319.070991498469
 31
0.0
  0
LINE
  5
266
330
1F
100
AcDbEntity
  8
0
  6
Continuous
 62
     2
100
AcDbLine
 10
1777.082233122215
 20
-1319.244228615679
 30
0.0
 11
1776.432260876867
 21
-1318.869244627978
 31
0.0
  0
LINE
  5
267
330
1F
100
AcDbEntity
  8
0
  6
Continuous
 62
     2
100
AcDbLine
 10
1775.932205367563
 20
-1318.522994672459
 30
0.0
 11
1775.932205367563
 21
-1317.531033037897
 31
0.0
  0
LINE
  5
268
330
1F
100
AcDbEntity
  8
0
  6
Continuous
 62
     2
100
AcDbLine
 10
1776.332205367564
 20
-1318.696007510768
 30
0.0
 11
1776.332205367564
 21
-1317.300263807127
 31
0.0
  0
LINE
  5
269
330
1F
100
AcDbEntity
  8
0
  6
Continuous
 62
     2
100
AcDbLine
 10
1776.932205367563
 20
-1317.507398612907
 30
0.0
 11
1776.932205367563
 21
-1318.522738333388
 31
0.0
  0
LINE
  5
26A
330
1F
100
AcDbEntity
  8
0
  6
Continuous
 62
     2
100
AcDbLine
 10
1777.188904097375
 20
-1317.952013855178
 30
0.0
 11
1776.932205367563
 21
-1317.507398612907
 31
0.0
  0
LINE
  5
26B
330
1F
100
AcDbEntity
  8
0
  6
Continuous
 62
     2
100
AcDbLine
 10
1779.857080440805
 20
-1318.24356025169
 30
0.0
 11
1777.232205367564
 21
-1319.757911255482
 31
0.0
  0
LINE
  5
26C
330
1F
100
AcDbEntity
  8
0
  6
Continuous
 62
     2
100
AcDbLine
 10
1779.757135950107
 20
-1318.07032313448
 30
0.0
 11
1777.232205367564
 21
-1319.527013855178
 31
0.0
  0
LINE
  5
26D
330
1F
100
AcDbEntity
  8
0
  6
Continuous
 62
     2
100
AcDbLine
 10
1778.482177612913
 20
-1318.609613231063
 30
0.0
 11
1778.082177612913
 21
-1318.840382461833
 31
0.0
  0
LINE
  5
26E
330
1F
100
AcDbEntity
  8
0
  6
Continuous
 62
     2
100
AcDbLine
 10
1778.132205367565
 20
-1318.580622895383
 30
0.0
 11
1778.382233122216
 21
-1318.436376113854
 31
0.0
  0
LINE
  5
26F
330
1F
100
AcDbEntity
  8
0
  6
Continuous
 62
     2
100
AcDbLine
 10
1778.132205367565
 20
-1318.127013855178
 30
0.0
 11
1778.132205367565
 21
-1318.580622895383
 31
0.0
  0
LINE
  5
270
330
1F
100
AcDbEntity
  8
0
  6
Continuous
 62
     2
100
AcDbLine
 10
1778.432205367563
 20
-1318.127013855178
 30
0.0
 11
1778.132205367565
 21
-1318.127013855178
 31
0.0
  0
LINE
  5
271
330
1F
100
AcDbEntity
  8
0
  6
Continuous
 62
     2
100
AcDbLine
 10
1778.132205367565
 20
-1317.927013855178
 30
0.0
 11
1778.432205367563
 21
-1317.927013855178
 31
0.0
  0
LINE
  5
272
330
1F
100
AcDbEntity
  8
0
  6
Continuous
 62
     2
100
AcDbLine
 10
1777.732205367564
 20
-1318.984533133997
 30
0.0
 11
1777.732205367564
 21
-1317.057648661567
 31
0.0
  0
LINE
  5
273
330
1F
100
AcDbEntity
  8
0
  6
Continuous
 62
     2
100
AcDbLine
 10
1778.082177612913
 20
-1317.213645248523
 30
0.0
 11
1778.482177612913
 21
-1317.444414479292
 31
0.0
  0
LINE
  5
274
330
1F
100
AcDbEntity
  8
0
  6
Continuous
 62
     2
100
AcDbLine
 10
1778.382233122216
 20
-1317.617651596501
 30
0.0
 11
1778.132205367565
 21
-1317.473404814972
 31
0.0
  0
LINE
  5
275
330
1F
100
AcDbEntity
  8
0
  6
Continuous
 62
     2
100
AcDbLine
 10
1778.132205367565
 20
-1317.473404814972
 30
0.0
 11
1778.132205367565
 21
-1317.927013855178
 31
0.0
  0
LINE
  5
276
330
1F
100
AcDbEntity
  8
0
  6
Continuous
 62
     2
100
AcDbLine
 10
1777.932205367563
 20
-1318.753763903228
 30
0.0
 11
1777.932205367563
 21
-1317.300263807127
 31
0.0
  0
LINE
  5
277
330
1F
100
AcDbEntity
  8
0
  6
Continuous
 62
     2
100
AcDbLine
 10
1774.707274785022
 20
-1317.983704575875
 30
0.0
 11
1777.232205367564
 21
-1316.527013855178
 31
0.0
  0
LINE
  5
278
330
1F
100
AcDbEntity
  8
0
  6
Continuous
 62
     2
100
AcDbLine
 10
1774.607330294324
 20
-1317.810467458665
 30
0.0
 11
1777.232205367564
 21
-1316.296116454873
 31
0.0
  0
LINE
  5
279
330
1F
100
AcDbEntity
  8
0
  6
Continuous
 62
     2
100
AcDbLine
 10
1777.232205367564
 20
-1316.527013855178
 30
0.0
 11
1779.757135950107
 21
-1317.983704575875
 31
0.0
  0
LINE
  5
27A
330
1F
100
AcDbEntity
  8
0
  6
Continuous
 62
     7
100
AcDbLine
 10
1764.232205367563
 20
-1313.564456001911
 30
0.0
 11
1762.982205367563
 21
-1313.564456001911
 31
0.0
  0
LINE
  5
27B
330
1F
100
AcDbEntity
  8
0
  6
Continuous
 62
     7
100
AcDbLine
 10
1764.232205367563
 20
-1313.564456001911
 30
0.0
 11
1764.16772543275
 21
-1313.805098394704
 31
0.0
  0
LINE
  5
27C
330
1F
100
AcDbEntity
  8
0
  6
Continuous
 62
     7
100
AcDbLine
 10
1762.982205367563
 20
-1323.064456001911
 30
0.0
 11
1762.982205367563
 21
-1325.119225342808
 31
0.0
  0
LINE
  5
27D
330
1F
100
AcDbEntity
  8
0
  6
Continuous
 62
     7
100
AcDbLine
 10
1762.982205367563
 20
-1323.064456001911
 30
0.0
 11
1763.482205367564
 21
-1323.064456001911
 31
0.0
  0
LINE
  5
27E
330
1F
100
AcDbEntity
  8
0
  6
Continuous
 62
     7
100
AcDbLine
 10
1762.982205367563
 20
-1325.119225342808
 30
0.0
 11
1762.982205367564
 21
-1332.01598677356
 31
0.0
  0
LINE
  5
27F
330
1F
100
AcDbEntity
  8
0
  6
Continuous
 62
     7
100
AcDbLine
 10
1762.982205367563
 20
-1333.60654324465
 30
0.0
 11
1762.982205367564
 21
-1334.424824876977
 31
0.0
  0
LINE
  5
280
330
1F
100
AcDbEntity
  8
0
  6
Continuous
 62
     7
100
AcDbLine
 10
1762.982205367563
 20
-1335.265986773561
 30
0.0
 11
1762.982205367564
 21
-1337.26598677356
 31
0.0
  0
LINE
  5
281
330
1F
100
AcDbEntity
  8
0
  6
Continuous
 62
     7
100
AcDbLine
 10
1762.982205367564
 20
-1337.26598677356
 30
0.0
 11
1762.982205367563
 21
-1339.868755875847
 31
0.0
  0
LINE
  5
282
330
1F
100
AcDbEntity
  8
0
  6
Continuous
 62
     7
100
AcDbLine
 10
1762.982205367564
 20
-1333.26598677356
 30
0.0
 11
1762.982205367563
 21
-1333.60654324465
 31
0.0
  0
LINE
  5
283
330
1F
100
AcDbEntity
  8
0
  6
DASHED
 62
     7
100
AcDbLine
 10
1762.982205367563
 20
-1342.265986773561
 30
0.0
 11
1762.982205367563
 21
-1339.868755875847
 31
0.0
  0
LINE
  5
284
330
1F
100
AcDbEntity
  8
0
  6
Continuous
 62
     7
100
AcDbLine
 10
1760.482205367564
 20
-1333.26598677356
 30
0.0
 11
1760.482205367564
 21
-1337.26598677356
 31
0.0
  0
LINE
  5
285
330
1F
100
AcDbEntity
  8
0
  6
Continuous
 62
     7
100
AcDbLine
 10
1760.482205367564
 20
-1337.26598677356
 30
0.0
 11
1760.482205367564
 21
-1338.26598677356
 31
0.0
  0
LINE
  5
286
330
1F
100
AcDbEntity
  8
0
  6
Continuous
 62
     7
100
AcDbLine
 10
1760.482205367564
 20
-1338.26598677356
 30
0.0
 11
1760.482205367564
 21
-1339.868755875847
 31
0.0
  0
LINE
  5
287
330
1F
100
AcDbEntity
  8
0
  6
Continuous
 62
     7
100
AcDbLine
 10
1765.721709109925
 20
-1308.005552357352
 30
0.0
 11
1765.360016825308
 21
-1309.355406340248
 31
0.0
  0
LINE
  5
288
330
1F
100
AcDbEntity
  8
0
  6
Continuous
 62
     7
100
AcDbLine
 10
1788.911208700176
 20
-1309.535727552861
 30
0.0
 11
1789.85072569157
 21
-1313.042052665018
 31
0.0
  0
LINE
  5
289
330
1F
100
AcDbEntity
  8
0
  6
Continuous
 62
     7
100
AcDbLine
 10
1760.482205367564
 20
-1325.119225342808
 30
0.0
 11
1760.482205367564
 21
-1333.26598677356
 31
0.0
  0
LINE
  5
28A
330
1F
100
AcDbEntity
  8
0
  6
Continuous
 62
     7
100
AcDbLine
 10
1760.482205367564
 20
-1321.66445600191
 30
0.0
 11
1760.482205367563
 21
-1323.064456001911
 31
0.0
  0
LINE
  5
28B
330
1F
100
AcDbEntity
  8
0
  6
Continuous
 62
     7
100
AcDbLine
 10
1760.482205367563
 20
-1323.064456001911
 30
0.0
 11
1762.982205367563
 21
-1323.064456001911
 31
0.0
  0
LINE
  5
28C
330
1F
100
AcDbEntity
  8
0
  6
Continuous
 62
     7
100
AcDbLine
 10
1760.482205367563
 20
-1323.064456001911
 30
0.0
 11
1760.482205367564
 21
-1325.119225342808
 31
0.0
  0
LINE
  5
28D
330
1F
100
AcDbEntity
  8
0
  6
Continuous
 62
     7
100
AcDbLine
 10
1762.809758671366
 20
-1309.839631034516
 30
0.0
 11
1760.482205367563
 21
-1309.839631034516
 31
0.0
  0
LINE
  5
28E
330
1F
100
AcDbEntity
  8
0
  6
Continuous
 62
     7
100
AcDbLine
 10
1760.482205367563
 20
-1309.564456001911
 30
0.0
 11
1762.654200678099
 21
-1309.564456001911
 31
0.0
  0
LINE
  5
28F
330
1F
100
AcDbEntity
  8
0
  6
Continuous
 62
     7
100
AcDbLine
 10
1760.482205367564
 20
-1313.564456001911
 30
0.0
 11
1760.482205367563
 21
-1309.839631034516
 31
0.0
  0
LINE
  5
290
330
1F
100
AcDbEntity
  8
0
  6
Continuous
 62
     7
100
AcDbLine
 10
1760.482205367563
 20
-1309.839631034516
 30
0.0
 11
1760.482205367563
 21
-1309.564456001911
 31
0.0
  0
LINE
  5
291
330
1F
100
AcDbEntity
  8
0
  6
Continuous
 62
     7
100
AcDbLine
 10
1767.343445621852
 20
-1308.430233908318
 30
0.0
 11
1787.120965113282
 21
-1308.430233908318
 31
0.0
  0
LINE
  5
292
330
1F
100
AcDbEntity
  8
0
  6
Continuous
 62
     7
100
AcDbLine
 10
1764.613685043541
 20
-1313.042052665018
 30
0.0
 11
1765.553202034951
 21
-1309.535727552861
 31
0.0
  0
LINE
  5
293
330
1F
100
AcDbEntity
  8
0
  6
Continuous
 62
     7
100
AcDbLine
 10
1764.420499861357
 20
-1312.861731384288
 30
0.0
 11
1765.360016825308
 21
-1309.355406340248
 31
0.0
  0
LINE
  5
294
330
1F
100
AcDbEntity
  8
0
  6
Continuous
 62
     7
100
AcDbLine
 10
1762.809758671366
 20
-1309.839631034516
 30
0.0
 11
1762.982205367563
 21
-1310.402521140638
 31
0.0
  0
LINE
  5
295
330
1F
100
AcDbEntity
  8
0
  6
Continuous
 62
     7
100
AcDbLine
 10
1762.982205367563
 20
-1313.564456001911
 30
0.0
 11
1762.982205367563
 21
-1310.402521140638
 31
0.0
  0
LINE
  5
296
330
1F
100
AcDbEntity
  8
0
  6
Continuous
 62
     7
100
AcDbLine
 10
1762.982205367564
 20
-1334.424824876977
 30
0.0
 11
1762.982205367563
 21
-1335.265986773561
 31
0.0
  0
LINE
  5
297
330
1F
100
AcDbEntity
  8
0
  6
Continuous
 62
     7
100
AcDbLine
 10
1762.982205367564
 20
-1332.01598677356
 30
0.0
 11
1762.982205367564
 21
-1333.26598677356
 31
0.0
  0
LINE
  5
298
330
1F
100
AcDbEntity
  8
0
  6
Continuous
 62
     7
100
AcDbLine
 10
1789.104393909817
 20
-1309.355406340245
 30
0.0
 11
1788.742701625203
 21
-1308.005552357359
 31
0.0
  0
LINE
  5
299
330
1F
100
AcDbEntity
  8
0
  6
Continuous
 62
     7
100
AcDbLine
 10
1767.705137795906
 20
-1306.751822419122
 30
0.0
 11
1786.759272939211
 21
-1306.751822424401
 31
0.0
  0
LINE
  5
29A
330
1F
100
AcDbEntity
  8
0
  6
Continuous
 62
     7
100
AcDbLine
 10
1791.810210057028
 20
-1309.564456001911
 30
0.0
 11
1793.982205367564
 21
-1309.564456001911
 31
0.0
  0
LINE
  5
29B
330
1F
100
AcDbEntity
  8
0
  6
Continuous
 62
     7
100
AcDbLine
 10
1764.420499861357
 20
-1312.861731384288
 30
0.0
 11
1764.232205367563
 21
-1313.564456001911
 31
0.0
  0
LINE
  5
29C
330
1F
100
AcDbEntity
  8
0
  6
Continuous
 62
     7
100
AcDbLine
 10
1764.613685043541
 20
-1313.042052665018
 30
0.0
 11
1764.062534893113
 21
-1314.970415494131
 31
0.0
  0
LINE
  5
29D
330
1F
100
AcDbEntity
  8
0
  6
Continuous
 62
     7
100
AcDbLine
 10
1760.482205367564
 20
-1313.564456001911
 30
0.0
 11
1762.482205367564
 21
-1313.564456001911
 31
0.0
  0
LINE
  5
29E
330
1F
100
AcDbEntity
  8
0
  6
Continuous
 62
     7
100
AcDbLine
 10
1790.401875841989
 20
-1314.970415494078
 30
0.0
 11
1764.062534893113
 21
-1314.970415494131
 31
0.0
  0
LINE
  5
29F
330
1F
100
AcDbEntity
  8
0
  6
Continuous
 62
     7
100
AcDbLine
 10
1760.482205367564
 20
-1313.564456001911
 30
0.0
 11
1760.482205367564
 21
-1321.66445600191
 31
0.0
  0
LINE
  5
2A0
330
1F
100
AcDbEntity
  8
0
  6
Continuous
 62
     7
100
AcDbLine
 10
1761.062205367566
 20
-1321.464456001862
 30
0.0
 11
1762.482205367564
 21
-1321.464456001911
 31
0.0
  0
LINE
  5
2A1
330
1F
100
AcDbEntity
  8
0
  6
Continuous
 62
     7
100
AcDbLine
 10
1762.482205367564
 20
-1321.464456001911
 30
0.0
 11
1763.482205367563
 21
-1321.464456001911
 31
0.0
  0
LINE
  5
2A2
330
1F
100
AcDbEntity
  8
0
  6
Continuous
 62
     7
100
AcDbLine
 10
1762.982205367563
 20
-1313.564456001911
 30
0.0
 11
1762.482205367564
 21
-1313.564456001911
 31
0.0
  0
LINE
  5
2A3
330
1F
100
AcDbEntity
  8
0
  6
Continuous
 62
     7
100
AcDbLine
 10
1790.296685302386
 20
-1313.805098394738
 30
0.0
 11
1790.232205367564
 21
-1313.564456001911
 31
0.0
  0
LINE
  5
2A4
330
1F
100
AcDbEntity
  8
0
  6
Continuous
 62
     7
100
AcDbLine
 10
1793.982205367564
 20
-1313.56445600191
 30
0.0
 11
1793.982205367564
 21
-1309.839631034516
 31
0.0
  0
LINE
  5
2A5
330
1F
100
AcDbEntity
  8
0
  6
Continuous
 62
     7
100
AcDbLine
 10
1793.982205367564
 20
-1309.839631034516
 30
0.0
 11
1791.65465206376
 21
-1309.839631034516
 31
0.0
  0
LINE
  5
2A6
330
1F
100
AcDbEntity
  8
0
  6
Continuous
 62
     7
100
AcDbLine
 10
1791.482205367564
 20
-1310.402521140638
 30
0.0
 11
1791.65465206376
 21
-1309.839631034516
 31
0.0
  0
LINE
  5
2A7
330
1F
100
AcDbEntity
  8
0
  6
Continuous
 62
     7
100
AcDbLine
 10
1793.982205367564
 20
-1309.839631034516
 30
0.0
 11
1793.982205367564
 21
-1309.564456001911
 31
0.0
  0
LINE
  5
2A8
330
1F
100
AcDbEntity
  8
0
  6
Continuous
 62
     7
100
AcDbLine
 10
1791.482205367564
 20
-1313.564456001911
 30
0.0
 11
1791.482205367564
 21
-1310.402521140638
 31
0.0
  0
LINE
  5
2A9
330
1F
100
AcDbEntity
  8
0
  6
Continuous
 62
     7
100
AcDbLine
 10
1791.982205367564
 20
-1313.564456001911
 30
0.0
 11
1793.982205367564
 21
-1313.56445600191
 31
0.0
  0
LINE
  5
2AA
330
1F
100
AcDbEntity
  8
0
  6
Continuous
 62
     7
100
AcDbLine
 10
1793.982205367564
 20
-1342.265986773561
 30
0.0
 11
1793.982205367564
 21
-1339.868755875847
 31
0.0
  0
LINE
  5
2AB
330
1F
100
AcDbEntity
  8
0
  6
Continuous
 62
     7
100
AcDbLine
 10
1791.482205367564
 20
-1342.265986773561
 30
0.0
 11
1793.982205367564
 21
-1342.265986773561
 31
0.0
  0
LINE
  5
2AC
330
1F
100
AcDbEntity
  8
0
  6
Continuous
 62
     7
100
AcDbLine
 10
1793.982205367564
 20
-1325.119225342808
 30
0.0
 11
1793.982205367564
 21
-1333.26598677356
 31
0.0
  0
LINE
  5
2AD
330
1F
100
AcDbEntity
  8
0
  6
Continuous
 62
     7
100
AcDbLine
 10
1793.982205367564
 20
-1333.26598677356
 30
0.0
 11
1793.982205367564
 21
-1337.26598677356
 31
0.0
  0
LINE
  5
2AE
330
1F
100
AcDbEntity
  8
0
  6
Continuous
 62
     7
100
AcDbLine
 10
1793.982205367564
 20
-1337.26598677356
 30
0.0
 11
1793.982205367564
 21
-1338.26598677356
 31
0.0
  0
LINE
  5
2AF
330
1F
100
AcDbEntity
  8
0
  6
Continuous
 62
     7
100
AcDbLine
 10
1793.982205367564
 20
-1338.26598677356
 30
0.0
 11
1793.982205367564
 21
-1339.868755875847
 31
0.0
  0
LINE
  5
2B0
330
1F
100
AcDbEntity
  8
0
  6
Continuous
 62
     7
100
AcDbLine
 10
1793.982205367564
 20
-1313.56445600191
 30
0.0
 11
1793.982205367564
 21
-1321.66445600191
 31
0.0
  0
LINE
  5
2B1
330
1F
100
AcDbEntity
  8
0
  6
Continuous
 62
     7
100
AcDbLine
 10
1793.40220536756
 20
-1321.464456001862
 30
0.0
 11
1791.982205367564
 21
-1321.464456001911
 31
0.0
  0
LINE
  5
2B2
330
1F
100
AcDbEntity
  8
0
  6
Continuous
 62
     7
100
AcDbLine
 10
1793.982205367564
 20
-1323.064456001911
 30
0.0
 11
1793.982205367564
 21
-1325.119225342808
 31
0.0
  0
LINE
  5
2B3
330
1F
100
AcDbEntity
  8
0
  6
Continuous
 62
     7
100
AcDbLine
 10
1793.982205367564
 20
-1323.064456001911
 30
0.0
 11
1791.482205367564
 21
-1323.064456001911
 31
0.0
  0
LINE
  5
2B4
330
1F
100
AcDbEntity
  8
0
  6
Continuous
 62
     7
100
AcDbLine
 10
1793.982205367564
 20
-1323.064456001911
 30
0.0
 11
1793.982205367564
 21
-1321.66445600191
 31
0.0
  0
LINE
  5
2B5
330
1F
100
AcDbEntity
  8
0
  6
Continuous
 62
     7
100
AcDbLine
 10
1791.982205367564
 20
-1313.564456001911
 30
0.0
 11
1791.482205367564
 21
-1313.564456001911
 31
0.0
  0
LINE
  5
2B6
330
1F
100
AcDbEntity
  8
0
  6
Continuous
 62
     7
100
AcDbLine
 10
1791.482205367564
 20
-1313.564456001911
 30
0.0
 11
1790.232205367564
 21
-1313.564456001911
 31
0.0
  0
LINE
  5
2B7
330
1F
100
AcDbEntity
  8
0
  6
Continuous
 62
     7
100
AcDbLine
 10
1791.982205367564
 20
-1321.464456001911
 30
0.0
 11
1790.982205367564
 21
-1321.464456001911
 31
0.0
  0
LINE
  5
2B8
330
1F
100
AcDbEntity
  8
0
  6
DASHED
 62
     7
100
AcDbLine
 10
1791.482205367564
 20
-1342.265986773561
 30
0.0
 11
1791.482205367564
 21
-1339.868755875847
 31
0.0
  0
LINE
  5
2B9
330
1F
100
AcDbEntity
  8
0
  6
Continuous
 62
     7
100
AcDbLine
 10
1791.482205367564
 20
-1323.064456001911
 30
0.0
 11
1790.982205367564
 21
-1323.064456001911
 31
0.0
  0
LINE
  5
2BA
330
1F
100
AcDbEntity
  8
0
  6
Continuous
 62
     7
100
AcDbLine
 10
1791.482205367564
 20
-1323.064456001911
 30
0.0
 11
1791.482205367564
 21
-1325.119225342808
 31
0.0
  0
LINE
  5
2BB
330
1F
100
AcDbEntity
  8
0
  6
Continuous
 62
     7
100
AcDbLine
 10
1791.482205367564
 20
-1325.119225342808
 30
0.0
 11
1791.482205367564
 21
-1332.01598677356
 31
0.0
  0
LINE
  5
2BC
330
1F
100
AcDbEntity
  8
0
  6
Continuous
 62
     7
100
AcDbLine
 10
1791.482205367564
 20
-1335.265986773561
 30
0.0
 11
1791.482205367564
 21
-1337.26598677356
 31
0.0
  0
LINE
  5
2BD
330
1F
100
AcDbEntity
  8
0
  6
Continuous
 62
     7
100
AcDbLine
 10
1791.482205367564
 20
-1337.26598677356
 30
0.0
 11
1791.482205367564
 21
-1339.868755875847
 31
0.0
  0
LINE
  5
2BE
330
1F
100
AcDbEntity
  8
0
  6
Continuous
 62
     7
100
AcDbLine
 10
1791.482205367564
 20
-1333.60654324465
 30
0.0
 11
1791.482205367564
 21
-1334.424824876977
 31
0.0
  0
LINE
  5
2BF
330
1F
100
AcDbEntity
  8
0
  6
Continuous
 62
     7
100
AcDbLine
 10
1791.482205367564
 20
-1334.424824876977
 30
0.0
 11
1791.482205367564
 21
-1335.265986773561
 31
0.0
  0
LINE
  5
2C0
330
1F
100
AcDbEntity
  8
0
  6
Continuous
 62
     7
100
AcDbLine
 10
1791.482205367564
 20
-1332.01598677356
 30
0.0
 11
1791.482205367564
 21
-1333.26598677356
 31
0.0
  0
LINE
  5
2C1
330
1F
100
AcDbEntity
  8
0
  6
Continuous
 62
     7
100
AcDbLine
 10
1791.482205367564
 20
-1333.26598677356
 30
0.0
 11
1791.482205367564
 21
-1333.60654324465
 31
0.0
  0
LINE
  5
2C2
330
1F
100
AcDbEntity
  8
0
  6
Continuous
 62
     7
100
AcDbLine
 10
1790.401875841989
 20
-1314.970415494078
 30
0.0
 11
1789.85072569157
 21
-1313.042052665018
 31
0.0
  0
LINE
  5
2C3
330
1F
100
AcDbEntity
  8
0
  6
Continuous
 62
     7
100
AcDbLine
 10
1790.232205367564
 20
-1313.564456001911
 30
0.0
 11
1790.043910878311
 21
-1312.861731401235
 31
0.0
  0
LINE
  5
2C4
330
1F
100
AcDbEntity
  8
0
  6
Continuous
 62
     7
100
AcDbLine
 10
1763.482205367564
 20
-1323.064456001911
 30
0.0
 11
1790.982205367564
 21
-1323.064456001911
 31
0.0
  0
LINE
  5
2C5
330
1F
100
AcDbEntity
  8
0
  6
Continuous
 62
     7
100
AcDbLine
 10
1790.982205367564
 20
-1321.464456001911
 30
0.0
 11
1763.482205367563
 21
-1321.464456001911
 31
0.0
  0
LINE
  5
2C6
330
1F
100
AcDbEntity
  8
0
  6
DASHED
 62
     7
100
AcDbLine
 10
1791.482205367564
 20
-1333.26598677356
 30
0.0
 11
1791.482205367564
 21
-1333.60654324465
 31
0.0
  0
LINE
  5
2C7
330
1F
100
AcDbEntity
  8
0
  6
DASHED
 62
     7
100
AcDbLine
 10
1791.482205367564
 20
-1332.01598677356
 30
0.0
 11
1791.482205367564
 21
-1333.26598677356
 31
0.0
  0
LINE
  5
2C8
330
1F
100
AcDbEntity
  8
0
  6
DASHED
 62
     7
100
AcDbLine
 10
1791.482205367564
 20
-1334.424824876977
 30
0.0
 11
1791.482205367564
 21
-1335.265986773561
 31
0.0
  0
LINE
  5
2C9
330
1F
100
AcDbEntity
  8
0
  6
DASHED
 62
     7
100
AcDbLine
 10
1791.482205367564
 20
-1333.60654324465
 30
0.0
 11
1791.482205367564
 21
-1334.424824876977
 31
0.0
  0
LINE
  5
2CA
330
1F
100
AcDbEntity
  8
0
  6
DASHED
 62
     7
100
AcDbLine
 10
1791.482205367564
 20
-1337.26598677356
 30
0.0
 11
1791.482205367564
 21
-1339.868755875847
 31
0.0
  0
LINE
  5
2CB
330
1F
100
AcDbEntity
  8
0
  6
DASHED
 62
     7
100
AcDbLine
 10
1791.482205367564
 20
-1335.265986773561
 30
0.0
 11
1791.482205367564
 21
-1337.26598677356
 31
0.0
  0
LINE
  5
2CC
330
1F
100
AcDbEntity
  8
0
  6
Continuous
 62
     7
100
AcDbLine
 10
1791.482205367564
 20
-1342.265986773561
 30
0.0
 11
1791.482205367564
 21
-1339.868755875847
 31
0.0
  0
LINE
  5
2CD
330
1F
100
AcDbEntity
  8
0
  6
DASHED
 62
     7
100
AcDbLine
 10
1793.982205367564
 20
-1337.26598677356
 30
0.0
 11
1793.982205367564
 21
-1338.26598677356
 31
0.0
  0
LINE
  5
2CE
330
1F
100
AcDbEntity
  8
0
  6
DASHED
 62
     7
100
AcDbLine
 10
1793.982205367564
 20
-1333.26598677356
 30
0.0
 11
1793.982205367564
 21
-1337.26598677356
 31
0.0
  0
LINE
  5
2CF
330
1F
100
AcDbEntity
  8
0
  6
DASHED
 62
     7
100
AcDbLine
 10
1762.982205367564
 20
-1332.01598677356
 30
0.0
 11
1762.982205367564
 21
-1333.26598677356
 31
0.0
  0
LINE
  5
2D0
330
1F
100
AcDbEntity
  8
0
  6
DASHED
 62
     7
100
AcDbLine
 10
1762.982205367564
 20
-1334.424824876977
 30
0.0
 11
1762.982205367563
 21
-1335.265986773561
 31
0.0
  0
LINE
  5
2D1
330
1F
100
AcDbEntity
  8
0
  6
DASHED
 62
     7
100
AcDbLine
 10
1760.482205367564
 20
-1337.26598677356
 30
0.0
 11
1760.482205367564
 21
-1338.26598677356
 31
0.0
  0
LINE
  5
2D2
330
1F
100
AcDbEntity
  8
0
  6
DASHED
 62
     7
100
AcDbLine
 10
1760.482205367564
 20
-1333.26598677356
 30
0.0
 11
1760.482205367564
 21
-1337.26598677356
 31
0.0
  0
LINE
  5
2D3
330
1F
100
AcDbEntity
  8
0
  6
Continuous
 62
     7
100
AcDbLine
 10
1762.982205367563
 20
-1342.265986773561
 30
0.0
 11
1762.982205367563
 21
-1339.868755875847
 31
0.0
  0
LINE
  5
2D4
330
1F
100
AcDbEntity
  8
0
  6
DASHED
 62
     7
100
AcDbLine
 10
1762.982205367564
 20
-1333.26598677356
 30
0.0
 11
1762.982205367563
 21
-1333.60654324465
 31
0.0
  0
LINE
  5
2D5
330
1F
100
AcDbEntity
  8
0
  6
DASHED
 62
     7
100
AcDbLine
 10
1762.982205367564
 20
-1337.26598677356
 30
0.0
 11
1762.982205367563
 21
-1339.868755875847
 31
0.0
  0
LINE
  5
2D6
330
1F
100
AcDbEntity
  8
0
  6
DASHED
 62
     7
100
AcDbLine
 10
1762.982205367563
 20
-1335.265986773561
 30
0.0
 11
1762.982205367564
 21
-1337.26598677356
 31
0.0
  0
LINE
  5
2D7
330
1F
100
AcDbEntity
  8
0
  6
DASHED
 62
     7
100
AcDbLine
 10
1762.982205367563
 20
-1333.60654324465
 30
0.0
 11
1762.982205367564
 21
-1334.424824876977
 31
0.0
  0
LINE
  5
2D8
330
1F
100
AcDbEntity
  8
0
  6
Continuous
 62
     7
100
AcDbLine
 10
1760.232205367563
 20
-1337.265986773561
 30
0.0
 11
1760.482205367564
 21
-1337.26598677356
 31
0.0
  0
LINE
  5
2D9
330
1F
100
AcDbEntity
  8
1
  6
Continuous
 62
     7
100
AcDbLine
 10
1760.232205367563
 20
-1333.265986773561
 30
0.0
 11
1760.482205367564
 21
-1333.26598677356
 31
0.0
  0
LINE
  5
2DA
330
1F
100
AcDbEntity
  8
0
  6
Continuous
 62
     7
100
AcDbLine
 10
1794.232205367563
 20
-1337.265986773561
 30
0.0
 11
1793.982205367564
 21
-1337.26598677356
 31
0.0
  0
LINE
  5
2DB
330
1F
100
AcDbEntity
  8
0
  6
Continuous
 62
     7
100
AcDbLine
 10
1794.232205367563
 20
-1333.265986773561
 30
0.0
 11
1793.982205367564
 21
-1333.26598677356
 31
0.0
  0
LINE
  5
2DC
330
1F
100
AcDbEntity
  8
1
  6
Continuous
 62
     2
100
AcDbLine
 10
1790.385953015044
 20
-1382.27138560551
 30
0.0
 11
1790.385953015044
 21
-1395.765986773561
 31
0.0
  0
LINE
  5
2DD
330
1F
100
AcDbEntity
  8
1
  6
Continuous
 62
     2
100
AcDbLine
 10
1764.078457720083
 20
-1382.265986773561
 30
0.0
 11
1764.078457720083
 21
-1395.765986773561
 31
0.0
  0
ARC
  5
2DE
102
{ACAD_REACTORS
330
3E9
102
}
330
1F
100
AcDbEntity
  8
1
  6
Continuous
 62
     7
100
AcDbCircle
 10
1818.679261283623
 20
-1520.744036990087
 30
0.0
 40
0.3333333333335111
100
AcDbArc
 50
299.9816393688142
 51
119.9816393687998
  0
ARC
  5
2DF
102
{ACAD_REACTORS
330
3E9
102
}
330
1F
100
AcDbEntity
  8
1
  6
Continuous
 62
     7
100
AcDbCircle
 10
1818.679261283623
 20
-1519.09076759915
 30
0.0
 40
0.3333333333330302
100
AcDbArc
 50
270.0
 51
90.0
  0
ARC
  5
2E0
102
{ACAD_REACTORS
330
3E9
102
}
330
1F
100
AcDbEntity
  8
1
  6
Continuous
 62
     7
100
AcDbCircle
 10
1818.679261283623
 20
-1517.437498208213
 30
0.0
 40
0.3333333333333974
100
AcDbArc
 50
240.0183606312197
 51
60.01836063108818
  0
ARC
  5
2E1
102
{ACAD_REACTORS
330
3EA
102
}
330
1F
100
AcDbEntity
  8
1
  6
Continuous
 62
     7
100
AcDbCircle
 10
1810.679261283623
 20
-1520.744036990087
 30
0.0
 40
0.3333333333339397
100
AcDbArc
 50
180.0
 51
0.0
  0
ARC
  5
2E2
102
{ACAD_REACTORS
330
3EA
102
}
330
1F
100
AcDbEntity
  8
1
  6
Continuous
 62
     7
100
AcDbCircle
 10
1810.679261283623
 20
-1517.437498208213
 30
0.0
 40
0.3333333333330302
100
AcDbArc
 50
0.0
 51
180.0
  0
ARC
  5
2E3
102
{ACAD_REACTORS
330
3EB
102
}
330
1F
100
AcDbEntity
  8
1
  6
Continuous
 62
     7
100
AcDbCircle
 10
1814.345927950289
 20
-1522.859421605471
 30
0.0
 40
0.3333333333335111
100
AcDbArc
 50
240.0183606311858
 51
60.01836063103087
  0
ARC
  5
2E4
102
{ACAD_REACTORS
330
3EB
102
}
330
1F
100
AcDbEntity
  8
1
  6
Continuous
 62
     7
100
AcDbCircle
 10
1812.012594616956
 20
-1516.668267438983
 30
0.0
 40
0.3333333333330302
100
AcDbArc
 50
0.0
 51
180.0
  0
ARC
  5
2E5
102
{ACAD_REACTORS
330
3EC
102
}
330
1F
100
AcDbEntity
  8
1
  6
Continuous
 62
     7
100
AcDbCircle
 10
1816.080961737814
 20
-1515.859550287116
 30
0.0
 40
0.2649662124749739
100
AcDbArc
 50
0.0
 51
149.9999999999453
  0
ARC
  5
2E6
102
{ACAD_REACTORS
330
3EC
102
}
330
1F
100
AcDbEntity
  8
1
  6
Continuous
 62
     7
100
AcDbCircle
 10
1816.012594616956
 20
-1522.282498528548
 30
0.0
 40
0.3333333333330302
100
AcDbArc
 50
180.0
 51
0.0
  0
ARC
  5
2E7
102
{ACAD_REACTORS
330
3EC
102
}
330
1F
100
AcDbEntity
  8
1
  6
Continuous
 62
     7
100
AcDbCircle
 10
1813.345927950289
 20
-1520.743182526517
 30
0.0
 40
0.3333333333330302
100
AcDbArc
 50
180.0
 51
0.0
  0
ARC
  5
2E8
102
{ACAD_REACTORS
330
3EC
102
}
330
1F
100
AcDbEntity
  8
1
  6
Continuous
 62
     7
100
AcDbCircle
 10
1813.277560829431
 20
-1515.859550287116
 30
0.0
 40
0.2649662124752487
100
AcDbArc
 50
30.00000000007923
 51
180.0
  0
ARC
  5
2E9
330
1F
100
AcDbEntity
  8
1
  6
Continuous
 62
     2
100
AcDbCircle
 10
1699.053120723017
 20
-1335.265986773561
 30
0.0
 40
41.05611493939654
100
AcDbArc
 50
139.1836984732898
 51
173.3562688447038
  0
ARC
  5
2EA
102
{ACAD_REACTORS
330
3F1
102
}
330
1F
100
AcDbEntity
  8
0
  6
Continuous
 62
     2
100
AcDbCircle
 10
1704.053009642753
 20
-1367.640986773561
 30
0.0
 40
0.2999999999994259
100
AcDbArc
 50
299.9816393689101
 51
0.0
  0
ARC
  5
2EB
330
1F
100
AcDbEntity
  8
0
  6
Continuous
 62
     7
100
AcDbCircle
 10
1790.682205367563
 20
-1355.565986773561
 30
0.0
 40
0.7999999999999545
100
AcDbArc
 50
0.0
 51
90.0
  0
ARC
  5
2EC
330
1F
100
AcDbEntity
  8
0
  6
Continuous
 62
     7
100
AcDbCircle
 10
1790.607205367563
 20
-1345.065986773561
 30
0.0
 40
0.5000000000005473
100
AcDbArc
 50
132.8181467429475
 51
227.1818532569816
  0
ARC
  5
2ED
330
1F
100
AcDbEntity
  8
0
  6
Continuous
 62
     7
100
AcDbCircle
 10
1790.107205367563
 20
-1345.965986773561
 30
0.0
 40
0.5
100
AcDbArc
 50
0.0
 51
47.18185325698164
  0
ARC
  5
2EE
330
1F
100
AcDbEntity
  8
0
  6
Continuous
 62
     7
100
AcDbCircle
 10
1790.107205367563
 20
-1344.165986773561
 30
0.0
 40
0.4999999999998803
100
AcDbArc
 50
312.8181467430184
 51
47.18185325696393
  0
ARC
  5
2EF
330
1F
100
AcDbEntity
  8
0
  6
Continuous
 62
     7
100
AcDbCircle
 10
1790.607205367563
 20
-1341.465986773561
 30
0.0
 40
0.4999999999998803
100
AcDbArc
 50
132.8181467430184
 51
227.1818532569639
  0
ARC
  5
2F0
330
1F
100
AcDbEntity
  8
0
  6
Continuous
 62
     7
100
AcDbCircle
 10
1790.107205367563
 20
-1342.365986773561
 30
0.0
 40
0.4999999999998803
100
AcDbArc
 50
312.8181467430184
 51
47.18185325698164
  0
ARC
  5
2F1
330
1F
100
AcDbEntity
  8
0
  6
Continuous
 62
     7
100
AcDbCircle
 10
1790.607205367563
 20
-1343.265986773561
 30
0.0
 40
0.4999999999998803
100
AcDbArc
 50
132.8181467430184
 51
227.1818532569816
  0
ARC
  5
2F2
330
1F
100
AcDbEntity
  8
0
  6
Continuous
 62
     7
100
AcDbCircle
 10
1763.857205367563
 20
-1345.065986773561
 30
0.0
 40
0.4999999999998803
100
AcDbArc
 50
312.8181467430184
 51
47.18185325705247
  0
ARC
  5
2F3
330
1F
100
AcDbEntity
  8
0
  6
Continuous
 62
     7
100
AcDbCircle
 10
1763.857205367563
 20
-1343.265986773561
 30
0.0
 40
0.4999999999998803
100
AcDbArc
 50
312.8181467430184
 51
47.18185325698164
  0
ARC
  5
2F4
330
1F
100
AcDbEntity
  8
0
  6
Continuous
 62
     7
100
AcDbCircle
 10
1764.357205367563
 20
-1342.365986773561
 30
0.0
 40
0.4999999999998803
100
AcDbArc
 50
132.8181467430184
 51
227.1818532569816
  0
ARC
  5
2F5
330
1F
100
AcDbEntity
  8
0
  6
Continuous
 62
     7
100
AcDbCircle
 10
1764.357205367563
 20
-1344.165986773561
 30
0.0
 40
0.4999999999997135
100
AcDbArc
 50
132.8181467430361
 51
227.1818532569816
  0
ARC
  5
2F6
330
1F
100
AcDbEntity
  8
0
  6
Continuous
 62
     7
100
AcDbCircle
 10
1765.982205367563
 20
-1377.765986773561
 30
0.0
 40
3.0
100
AcDbArc
 50
180.0
 51
270.0
  0
ARC
  5
2F7
330
1F
100
AcDbEntity
  8
0
  6
Continuous
 62
     7
100
AcDbCircle
 10
1763.782205367563
 20
-1355.565986773561
 30
0.0
 40
0.7999999999999545
100
AcDbArc
 50
90.0
 51
180.0
  0
ARC
  5
2F8
330
1F
100
AcDbEntity
  8
0
  6
Continuous
 62
     7
100
AcDbCircle
 10
1763.857205367563
 20
-1339.665986773561
 30
0.0
 40
0.4999999999998803
100
AcDbArc
 50
312.8181467430184
 51
47.18185325696393
  0
ARC
  5
2F9
330
1F
100
AcDbEntity
  8
0
  6
Continuous
 62
     7
100
AcDbCircle
 10
1764.357205367563
 20
-1340.565986773561
 30
0.0
 40
0.5000000000005473
100
AcDbArc
 50
132.8181467429475
 51
227.1818532569816
  0
ARC
  5
2FA
330
1F
100
AcDbEntity
  8
0
  6
Continuous
 62
     7
100
AcDbCircle
 10
1763.857205367563
 20
-1341.465986773561
 30
0.0
 40
0.4999999999997135
100
AcDbArc
 50
312.818146743036
 51
47.18185325698164
  0
ARC
  5
2FB
330
1F
100
AcDbEntity
  8
0
  6
Continuous
 62
     7
100
AcDbCircle
 10
1764.357205367563
 20
-1338.765986773561
 30
0.0
 40
0.5
100
AcDbArc
 50
180.0
 51
227.1818532569816
  0
ARC
  5
2FC
330
1F
100
AcDbEntity
  8
0
  6
Continuous
 62
     7
100
AcDbCircle
 10
1764.357205367563
 20
-1345.965986773561
 30
0.0
 40
0.4999999999998803
100
AcDbArc
 50
132.8181467430184
 51
180.0
  0
ARC
  5
2FD
330
1F
100
AcDbEntity
  8
0
  6
Continuous
 62
     7
100
AcDbCircle
 10
1762.732205367563
 20
-1380.265986773561
 30
0.0
 40
0.5
100
AcDbArc
 50
180.0
 51
270.0
  0
ARC
  5
2FE
330
1F
100
AcDbEntity
  8
0
  6
Continuous
 62
     7
100
AcDbCircle
 10
1791.732205367563
 20
-1380.265986773561
 30
0.0
 40
0.5
100
AcDbArc
 50
270.0
 51
0.0
  0
ARC
  5
2FF
330
1F
100
AcDbEntity
  8
0
  6
Continuous
 62
     7
100
AcDbCircle
 10
1788.482205367563
 20
-1377.765986773561
 30
0.0
 40
3.0
100
AcDbArc
 50
270.0
 51
0.0
  0
ARC
  5
300
330
1F
100
AcDbEntity
  8
0
  6
Continuous
 62
     7
100
AcDbCircle
 10
1790.107205367563
 20
-1338.765986773561
 30
0.0
 40
0.4999999999998803
100
AcDbArc
 50
312.8181467430184
 51
0.0
  0
ARC
  5
301
330
1F
100
AcDbEntity
  8
0
  6
Continuous
 62
     7
100
AcDbCircle
 10
1790.607205367563
 20
-1339.665986773561
 30
0.0
 40
0.4999999999997135
100
AcDbArc
 50
132.8181467430361
 51
227.1818532569816
  0
ARC
  5
302
330
1F
100
AcDbEntity
  8
0
  6
Continuous
 62
     7
100
AcDbCircle
 10
1790.107205367563
 20
-1340.565986773561
 30
0.0
 40
0.4999999999998803
100
AcDbArc
 50
312.8181467430184
 51
47.18185325705247
  0
ARC
  5
303
330
1F
100
AcDbEntity
  8
0
  6
Continuous
 62
     7
100
AcDbCircle
 10
1712.784460755871
 20
-1377.765986773561
 30
0.0
 40
3.0
100
AcDbArc
 50
270.0
 51
344.9999999999918
  0
ARC
  5
304
330
1F
100
AcDbEntity
  8
0
  6
Continuous
 62
     7
100
AcDbCircle
 10
1677.09570102129
 20
-1355.565986773561
 30
0.0
 40
0.7999999999999545
100
AcDbArc
 50
90.0
 51
194.999999999981
  0
ARC
  5
305
330
1F
100
AcDbEntity
  8
0
  6
Continuous
 62
     7
100
AcDbCircle
 10
1685.321780690163
 20
-1377.765986773561
 30
0.0
 40
3.000000000000839
100
AcDbArc
 50
195.0000000000037
 51
270.0
  0
ARC
  5
306
330
1F
100
AcDbEntity
  8
0
  6
Continuous
 62
     2
100
AcDbCircle
 10
1721.553120723017
 20
-1344.165986773561
 30
0.0
 40
0.4999999999998803
100
AcDbArc
 50
312.8181467430184
 51
0.0
  0
ARC
  5
307
330
1F
100
AcDbEntity
  8
0
  6
Continuous
 62
     2
100
AcDbCircle
 10
1721.553120723017
 20
-1345.965986773561
 30
0.0
 40
0.5
100
AcDbArc
 50
0.0
 51
47.18185325698164
  0
ARC
  5
308
330
1F
100
AcDbEntity
  8
0
  6
Continuous
 62
     2
100
AcDbCircle
 10
1721.553120723017
 20
-1344.165986773561
 30
0.0
 40
0.5
100
AcDbArc
 50
0.0
 51
47.18185325696393
  0
ARC
  5
309
330
1F
100
AcDbEntity
  8
0
  6
Continuous
 62
     2
100
AcDbCircle
 10
1721.553120723017
 20
-1342.365986773561
 30
0.0
 40
0.5
100
AcDbArc
 50
0.0
 51
47.18185325698164
  0
ARC
  5
30A
330
1F
100
AcDbEntity
  8
0
  6
Continuous
 62
     2
100
AcDbCircle
 10
1721.553120723017
 20
-1342.365986773561
 30
0.0
 40
0.4999999999998803
100
AcDbArc
 50
312.8181467430184
 51
0.0
  0
ARC
  5
30B
330
1F
100
AcDbEntity
  8
0
  6
Continuous
 62
     2
100
AcDbCircle
 10
1721.553120723017
 20
-1340.565986773561
 30
0.0
 40
0.4999999999998803
100
AcDbArc
 50
312.8181467430184
 51
0.0
  0
ARC
  5
30C
330
1F
100
AcDbEntity
  8
0
  6
Continuous
 62
     2
100
AcDbCircle
 10
1721.553120723017
 20
-1338.765986773561
 30
0.0
 40
0.4999999999998803
100
AcDbArc
 50
312.8181467430184
 51
0.0
  0
ARC
  5
30D
330
1F
100
AcDbEntity
  8
0
  6
Continuous
 62
     2
100
AcDbCircle
 10
1721.553120723017
 20
-1340.565986773561
 30
0.0
 40
0.5
100
AcDbArc
 50
0.0
 51
47.18185325705247
  0
ARC
  5
30E
330
1F
100
AcDbEntity
  8
0
  6
Continuous
 62
     2
100
AcDbCircle
 10
1722.053120723017
 20
-1343.265986773561
 30
0.0
 40
0.4999999999998803
100
AcDbArc
 50
132.8181467430184
 51
227.1818532569816
  0
ARC
  5
30F
330
1F
100
AcDbEntity
  8
0
  6
Continuous
 62
     2
100
AcDbCircle
 10
1722.053120723017
 20
-1345.065986773561
 30
0.0
 40
0.5000000000005473
100
AcDbArc
 50
132.8181467429475
 51
227.1818532569816
  0
ARC
  5
310
330
1F
100
AcDbEntity
  8
0
  6
Continuous
 62
     2
100
AcDbCircle
 10
1722.053120723017
 20
-1341.465986773561
 30
0.0
 40
0.4999999999998803
100
AcDbArc
 50
132.8181467430184
 51
227.1818532569639
  0
ARC
  5
311
330
1F
100
AcDbEntity
  8
0
  6
Continuous
 62
     2
100
AcDbCircle
 10
1722.053120723017
 20
-1339.665986773561
 30
0.0
 40
0.4999999999997135
100
AcDbArc
 50
132.8181467430361
 51
227.1818532569816
  0
ARC
  5
312
330
1F
100
AcDbEntity
  8
0
  6
Continuous
 62
     7
100
AcDbCircle
 10
1721.010540424744
 20
-1355.565986773561
 30
0.0
 40
0.7999999999996056
100
AcDbArc
 50
344.999999999998
 51
90.0
  0
ARC
  5
313
330
1F
100
AcDbEntity
  8
0
  6
Continuous
 62
     2
100
AcDbCircle
 10
1676.553120723017
 20
-1340.565986773561
 30
0.0
 40
0.5
100
AcDbArc
 50
180.0
 51
227.1818532569816
  0
ARC
  5
314
330
1F
100
AcDbEntity
  8
0
  6
Continuous
 62
     2
100
AcDbCircle
 10
1676.553120723017
 20
-1340.565986773561
 30
0.0
 40
0.5000000000005473
100
AcDbArc
 50
132.8181467429475
 51
180.0
  0
ARC
  5
315
330
1F
100
AcDbEntity
  8
0
  6
Continuous
 62
     2
100
AcDbCircle
 10
1676.553120723017
 20
-1344.165986773561
 30
0.0
 40
0.5
100
AcDbArc
 50
180.0
 51
227.1818532569816
  0
ARC
  5
316
330
1F
100
AcDbEntity
  8
0
  6
Continuous
 62
     2
100
AcDbCircle
 10
1676.553120723017
 20
-1344.165986773561
 30
0.0
 40
0.4999999999997135
100
AcDbArc
 50
132.8181467430361
 51
180.0
  0
ARC
  5
317
330
1F
100
AcDbEntity
  8
0
  6
Continuous
 62
     2
100
AcDbCircle
 10
1676.553120723017
 20
-1342.365986773561
 30
0.0
 40
0.5
100
AcDbArc
 50
180.0
 51
227.1818532569816
  0
ARC
  5
318
330
1F
100
AcDbEntity
  8
0
  6
Continuous
 62
     2
100
AcDbCircle
 10
1676.553120723017
 20
-1342.365986773561
 30
0.0
 40
0.4999999999998803
100
AcDbArc
 50
132.8181467430184
 51
180.0
  0
ARC
  5
319
330
1F
100
AcDbEntity
  8
0
  6
Continuous
 62
     2
100
AcDbCircle
 10
1676.553120723017
 20
-1345.965986773561
 30
0.0
 40
0.4999999999998803
100
AcDbArc
 50
132.8181467430184
 51
180.0
  0
ARC
  5
31A
330
1F
100
AcDbEntity
  8
0
  6
Continuous
 62
     2
100
AcDbCircle
 10
1676.553120723017
 20
-1338.765986773561
 30
0.0
 40
0.5
100
AcDbArc
 50
180.0
 51
227.1818532569816
  0
ARC
  5
31B
330
1F
100
AcDbEntity
  8
0
  6
Continuous
 62
     2
100
AcDbCircle
 10
1676.053120723017
 20
-1345.065986773561
 30
0.0
 40
0.4999999999998803
100
AcDbArc
 50
312.8181467430184
 51
47.18185325705247
  0
ARC
  5
31C
330
1F
100
AcDbEntity
  8
0
  6
Continuous
 62
     2
100
AcDbCircle
 10
1676.053120723017
 20
-1343.265986773561
 30
0.0
 40
0.4999999999998803
100
AcDbArc
 50
312.8181467430184
 51
47.18185325698164
  0
ARC
  5
31D
330
1F
100
AcDbEntity
  8
0
  6
Continuous
 62
     2
100
AcDbCircle
 10
1676.053120723017
 20
-1341.465986773561
 30
0.0
 40
0.4999999999997135
100
AcDbArc
 50
312.818146743036
 51
47.18185325698164
  0
ARC
  5
31E
330
1F
100
AcDbEntity
  8
0
  6
Continuous
 62
     2
100
AcDbCircle
 10
1676.053120723017
 20
-1339.665986773561
 30
0.0
 40
0.4999999999998803
100
AcDbArc
 50
312.8181467430184
 51
47.18185325696393
  0
ARC
  5
31F
102
{ACAD_REACTORS
330
3F1
102
}
330
1F
100
AcDbEntity
  8
0
  6
Continuous
 62
     2
100
AcDbCircle
 10
1704.053009642753
 20
-1367.640986773561
 30
0.0
 40
0.2999999999999545
100
AcDbArc
 50
0.0
 51
60.01836063119842
  0
ARC
  5
320
330
1F
100
AcDbEntity
  8
0
  6
Continuous
 62
     2
100
AcDbCircle
 10
1699.053120723017
 20
-1361.515986773561
 30
0.0
 40
15.00000000000002
100
AcDbArc
 50
251.8051276612329
 51
288.1948723387637
  0
ARC
  5
321
102
{ACAD_REACTORS
330
3EF
102
}
330
1F
100
AcDbEntity
  8
0
  6
Continuous
 62
     2
100
AcDbCircle
 10
1699.053120723017
 20
-1367.840986773561
 30
0.0
 40
0.099999999999666
100
AcDbArc
 50
30.00000000023085
 51
150.0000000000297
  0
ARC
  5
322
102
{ACAD_REACTORS
330
3F0
102
}
330
1F
100
AcDbEntity
  8
0
  6
Continuous
 62
     2
100
AcDbCircle
 10
1696.653120723017
 20
-1367.640986773561
 30
0.0
 40
0.2000000000000455
100
AcDbArc
 50
90.0
 51
270.0
  0
ARC
  5
323
102
{ACAD_REACTORS
330
3EF
102
}
330
1F
100
AcDbEntity
  8
0
  6
Continuous
 62
     2
100
AcDbCircle
 10
1698.253120723017
 20
-1365.725948215922
 30
0.0
 40
0.2000000000000455
100
AcDbArc
 50
0.0
 51
180.0
  0
ARC
  5
324
102
{ACAD_REACTORS
330
3F0
102
}
330
1F
100
AcDbEntity
  8
0
  6
Continuous
 62
     2
100
AcDbCircle
 10
1696.653120723017
 20
-1366.649025138999
 30
0.0
 40
0.2000000000003218
100
AcDbArc
 50
119.9816393688689
 51
299.9816393689427
  0
ARC
  5
325
102
{ACAD_REACTORS
330
3F0
102
}
330
1F
100
AcDbEntity
  8
0
  6
Continuous
 62
     2
100
AcDbCircle
 10
1697.453120723017
 20
-1366.18748667746
 30
0.0
 40
0.2000000000000455
100
AcDbArc
 50
0.0
 51
119.9816393690316
  0
ARC
  5
326
102
{ACAD_REACTORS
330
3EE
102
}
330
1F
100
AcDbEntity
  8
0
  6
Continuous
 62
     2
100
AcDbCircle
 10
1699.253120723017
 20
-1365.379794369768
 30
0.0
 40
0.2000000000002081
100
AcDbArc
 50
60.01836063118757
 51
240.0183606311875
  0
ARC
  5
327
102
{ACAD_REACTORS
330
3EE
102
}
330
1F
100
AcDbEntity
  8
0
  6
Continuous
 62
     2
100
AcDbCircle
 10
1700.453120723017
 20
-1366.30299946238
 30
0.0
 40
0.3999999999998636
100
AcDbArc
 50
0.0
 51
60.01836063109424
  0
ARC
  5
328
102
{ACAD_REACTORS
330
3EF
102
}
330
1F
100
AcDbEntity
  8
0
  6
Continuous
 62
     2
100
AcDbCircle
 10
1699.853120723017
 20
-1366.64953781714
 30
0.0
 40
0.2000000000000455
100
AcDbArc
 50
0.0
 51
180.0
  0
ARC
  5
329
102
{ACAD_REACTORS
330
3ED
102
}
330
1F
100
AcDbEntity
  8
0
  6
Continuous
 62
     2
100
AcDbCircle
 10
1701.453120723017
 20
-1366.649025138999
 30
0.0
 40
0.2000000000000455
100
AcDbArc
 50
0.0
 51
180.0
  0
ARC
  5
32A
102
{ACAD_REACTORS
330
3F1
102
}
330
1F
100
AcDbEntity
  8
0
  6
Continuous
 62
     2
100
AcDbCircle
 10
1704.053009642753
 20
-1367.640986773561
 30
0.0
 40
0.0999999999992178
100
AcDbArc
 50
299.9816393691054
 51
60.01836063122011
  0
ARC
  5
32B
102
{ACAD_REACTORS
330
3F0
102
}
330
1F
100
AcDbEntity
  8
0
  6
Continuous
 62
     2
100
AcDbCircle
 10
1697.453120723017
 20
-1369.094486869661
 30
0.0
 40
0.2000000000003218
100
AcDbArc
 50
240.0183606311311
 51
0.0
  0
ARC
  5
32C
102
{ACAD_REACTORS
330
3EE
102
}
330
1F
100
AcDbEntity
  8
0
  6
Continuous
 62
     2
100
AcDbCircle
 10
1700.653120723017
 20
-1369.094486869661
 30
0.0
 40
0.2000000000000455
100
AcDbArc
 50
180.0
 51
0.0
  0
ARC
  5
32D
102
{ACAD_REACTORS
330
3EF
102
}
330
1F
100
AcDbEntity
  8
0
  6
Continuous
 62
     2
100
AcDbCircle
 10
1698.212100450502
 20
-1369.579717160781
 30
0.0
 40
0.1589797274850753
100
AcDbArc
 50
180.0
 51
329.9999999998744
  0
ARC
  5
32E
102
{ACAD_REACTORS
330
3ED
102
}
330
1F
100
AcDbEntity
  8
0
  6
Continuous
 62
     2
100
AcDbCircle
 10
1701.453120723017
 20
-1368.632948408123
 30
0.0
 40
0.2000000000000455
100
AcDbArc
 50
180.0
 51
0.0
  0
ARC
  5
32F
102
{ACAD_REACTORS
330
3EF
102
}
330
1F
100
AcDbEntity
  8
0
  6
Continuous
 62
     2
100
AcDbCircle
 10
1699.894140995532
 20
-1369.579717160781
 30
0.0
 40
0.158979727485578
100
AcDbArc
 50
210.0000000000846
 51
0.0
  0
ARC
  5
330
102
{ACAD_REACTORS
330
3F0
102
}
330
1F
100
AcDbEntity
  8
0
  6
Continuous
 62
     2
100
AcDbCircle
 10
1696.653120723017
 20
-1368.632948408123
 30
0.0
 40
0.2000000000002081
100
AcDbArc
 50
60.01836063118757
 51
240.0183606310009
  0
ARC
  5
331
102
{ACAD_REACTORS
330
3F1
102
}
330
1F
100
AcDbEntity
  8
0
  6
Continuous
 62
     2
100
AcDbCircle
 10
1694.053231803281
 20
-1367.640986773561
 30
0.0
 40
0.1000000000002025
100
AcDbArc
 50
119.9816393687799
 51
240.0183606308946
  0
ARC
  5
332
102
{ACAD_REACTORS
330
3F1
102
}
330
1F
100
AcDbEntity
  8
0
  6
Continuous
 62
     2
100
AcDbCircle
 10
1694.053231803281
 20
-1367.640986773561
 30
0.0
 40
0.3000000000005243
100
AcDbArc
 50
119.9816393688392
 51
240.0183606310523
  0
ARC
  5
333
330
1F
100
AcDbEntity
  8
0
  6
Continuous
 62
     7
100
AcDbCircle
 10
1669.743380869151
 20
-1306.951822424401
 30
0.0
 40
0.2000000000004154
100
AcDbArc
 50
40.00000857492082
 51
130.0000000100895
  0
ARC
  5
334
330
1F
100
AcDbEntity
  8
0
  6
Continuous
 62
     7
100
AcDbCircle
 10
1668.134687538601
 20
-1308.301676404743
 30
0.0
 40
0.199999999999974
100
AcDbArc
 50
129.9999999923915
 51
219.9999931331902
  0
ARC
  5
335
330
1F
100
AcDbEntity
  8
0
  6
Continuous
 62
     7
100
AcDbCircle
 10
1671.753120723016
 20
-1321.66445600191
 30
0.0
 40
0.1999999999989086
100
AcDbArc
 50
90.0
 51
180.0
  0
ARC
  5
336
330
1F
100
AcDbEntity
  8
0
  6
Continuous
 62
     7
100
AcDbCircle
 10
1697.977355337191
 20
-1317.640221387736
 30
0.0
 40
8.075765385825889
100
AcDbArc
 50
0.0
 51
104.9999999999983
  0
ARC
  5
337
330
1F
100
AcDbEntity
  8
0
  6
Continuous
 62
     7
100
AcDbCircle
 10
1691.869691034152
 20
-1319.481469437992
 30
0.0
 40
1.500000000000059
100
AcDbArc
 50
157.9557327591977
 51
316.1166392116533
  0
ARC
  5
338
330
1F
100
AcDbEntity
  8
0
  6
Continuous
 62
     7
100
AcDbCircle
 10
1699.053120723017
 20
-1326.390221387736
 30
0.0
 40
8.466569901322828
100
AcDbArc
 50
90.0
 51
136.1166392116421
  0
ARC
  5
339
330
1F
100
AcDbEntity
  8
0
  6
Continuous
 62
     7
100
AcDbCircle
 10
1701.977355337191
 20
-1317.640221387736
 30
0.0
 40
4.075765385824688
100
AcDbArc
 50
241.2299948363706
 51
0.0
  0
ARC
  5
33A
330
1F
100
AcDbEntity
  8
0
  6
Continuous
 62
     7
100
AcDbCircle
 10
1699.053120723017
 20
-1322.965986773561
 30
0.0
 40
2.000000000000206
100
AcDbArc
 50
61.22999483635276
 51
180.0
  0
ARC
  5
33B
330
1F
100
AcDbEntity
  8
0
  6
Continuous
 62
     7
100
AcDbCircle
 10
1699.053120723017
 20
-1326.265986773561
 30
0.0
 40
2.0
100
AcDbArc
 50
180.0
 51
270.0
  0
ARC
  5
33C
330
1F
100
AcDbEntity
  8
0
  6
Continuous
 62
     7
100
AcDbCircle
 10
1699.053120723017
 20
-1322.390221387736
 30
0.0
 40
4.466569901322877
100
AcDbArc
 50
59.67890074697677
 51
90.0
  0
ARC
  5
33D
330
1F
100
AcDbEntity
  8
0
  6
Continuous
 62
     7
100
AcDbCircle
 10
1699.053120723017
 20
-1322.390221387736
 30
0.0
 40
9.25
100
AcDbArc
 50
90.0
 51
157.9557327591791
  0
ARC
  5
33E
330
1F
100
AcDbEntity
  8
0
  6
Continuous
 62
     7
100
AcDbCircle
 10
1699.053120723017
 20
-1317.390221387736
 30
0.0
 40
4.25
100
AcDbArc
 50
0.0
 51
90.0
  0
ARC
  5
33F
330
1F
100
AcDbEntity
  8
0
  6
Continuous
 62
     7
100
AcDbCircle
 10
1701.977355337191
 20
-1317.390221387736
 30
0.0
 40
1.325765385824615
100
AcDbArc
 50
239.6789007469746
 51
0.0
  0
ARC
  5
340
330
1F
100
AcDbEntity
  8
0
  6
Continuous
 62
     7
100
AcDbCircle
 10
1669.553120723017
 20
-1314.970415494078
 30
0.0
 40
3.0
100
AcDbArc
 50
359.9999999989882
 51
40.00000000000313
  0
ARC
  5
341
330
1F
100
AcDbEntity
  8
0
  6
Continuous
 62
     7
100
AcDbCircle
 10
1674.053120723017
 20
-1313.33254943988
 30
0.0
 40
1.0
100
AcDbArc
 50
0.0
 51
40.00000000002255
  0
ARC
  5
342
330
1F
100
AcDbEntity
  8
0
  6
Continuous
 62
     7
100
AcDbCircle
 10
1676.386185501077
 20
-1329.06445600191
 30
0.0
 40
6.000000000000149
100
AcDbArc
 50
41.11240957994119
 51
90.0
  0
ARC
  5
343
330
1F
100
AcDbEntity
  8
0
  6
Continuous
 62
     7
100
AcDbCircle
 10
1699.053120723017
 20
-1335.265986773561
 30
0.0
 40
7.000000000000289
100
AcDbArc
 50
221.1124095799437
 51
90.0
  0
ARC
  5
344
330
1F
100
AcDbEntity
  8
0
  6
Continuous
 62
     2
100
AcDbCircle
 10
1776.811695231307
 20
-1317.057648661567
 30
0.0
 40
0.0794898637428154
100
AcDbArc
 50
29.9999999997898
 51
180.0
  0
ARC
  5
345
330
1F
100
AcDbEntity
  8
0
  6
Continuous
 62
     2
100
AcDbCircle
 10
1777.232205367564
 20
-1317.927013855178
 30
0.0
 40
0.0499999999997193
100
AcDbArc
 50
210.0000000000052
 51
330.0000000006462
  0
ARC
  5
346
330
1F
100
AcDbEntity
  8
0
  6
Continuous
 62
     2
100
AcDbCircle
 10
1776.432205367563
 20
-1317.300263807127
 30
0.0
 40
0.1000000000010459
100
AcDbArc
 50
0.0
 51
180.0
  0
ARC
  5
347
330
1F
100
AcDbEntity
  8
0
  6
Continuous
 62
     2
100
AcDbCircle
 10
1774.732260907697
 20
-1318.027013855178
 30
0.0
 40
0.250000000001101
100
AcDbArc
 50
119.9816393689118
 51
240.018360630984
  0
ARC
  5
348
330
1F
100
AcDbEntity
  8
0
  6
Continuous
 62
     2
100
AcDbCircle
 10
1776.032205367564
 20
-1318.522994672459
 30
0.0
 40
0.1000000000010459
100
AcDbArc
 50
180.0
 51
0.0
  0
ARC
  5
349
330
1F
100
AcDbEntity
  8
0
  6
Continuous
 62
     2
100
AcDbCircle
 10
1776.532205367564
 20
-1318.696007510768
 30
0.0
 40
0.2000000000000455
100
AcDbArc
 50
180.0
 51
240.0183606314458
  0
ARC
  5
34A
330
1F
100
AcDbEntity
  8
0
  6
Continuous
 62
     2
100
AcDbCircle
 10
1777.132205367565
 20
-1319.157610057074
 30
0.0
 40
0.100000000000657
100
AcDbArc
 50
240.0183606307687
 51
60.01836063205775
  0
ARC
  5
34B
330
1F
100
AcDbEntity
  8
0
  6
Continuous
 62
     2
100
AcDbCircle
 10
1776.832205367564
 20
-1318.522738333388
 30
0.0
 40
0.1000000000001364
100
AcDbArc
 50
180.0
 51
0.0
  0
ARC
  5
34C
330
1F
100
AcDbEntity
  8
0
  6
Continuous
 62
     2
100
AcDbCircle
 10
1774.732260907697
 20
-1318.027013855178
 30
0.0
 40
0.0500000000007792
100
AcDbArc
 50
119.9816393690837
 51
240.0183606303954
  0
ARC
  5
34D
330
1F
100
AcDbEntity
  8
0
  6
Continuous
 62
     2
100
AcDbCircle
 10
1776.032205367564
 20
-1317.531033037897
 30
0.0
 40
0.1000000000008185
100
AcDbArc
 50
0.0
 51
180.0
  0
ARC
  5
34E
330
1F
100
AcDbEntity
  8
0
  6
Continuous
 62
     2
100
AcDbCircle
 10
1779.732149827432
 20
-1318.027013855178
 30
0.0
 40
0.2500000000001996
100
AcDbArc
 50
299.9816393689708
 51
60.0183606311333
  0
ARC
  5
34F
330
1F
100
AcDbEntity
  8
0
  6
Continuous
 62
     2
100
AcDbCircle
 10
1779.732149827432
 20
-1318.027013855178
 30
0.0
 40
0.0499999999999914
100
AcDbArc
 50
299.9816393696045
 51
60.01836063091631
  0
ARC
  5
350
330
1F
100
AcDbEntity
  8
0
  6
Continuous
 62
     2
100
AcDbCircle
 10
1778.032205367564
 20
-1318.753763903228
 30
0.0
 40
0.1000000000010459
100
AcDbArc
 50
180.0
 51
299.9816393687799
  0
ARC
  5
351
330
1F
100
AcDbEntity
  8
0
  6
Continuous
 62
     2
100
AcDbCircle
 10
1778.432205367563
 20
-1318.522994672459
 30
0.0
 40
0.0999999999996723
100
AcDbArc
 50
299.9816393695568
 51
119.9816393679423
  0
ARC
  5
352
330
1F
100
AcDbEntity
  8
0
  6
Continuous
 62
     2
100
AcDbCircle
 10
1777.632205367565
 20
-1318.984533133997
 30
0.0
 40
0.1000000000008185
100
AcDbArc
 50
180.0
 51
0.0
  0
ARC
  5
353
330
1F
100
AcDbEntity
  8
0
  6
Continuous
 62
     2
100
AcDbCircle
 10
1778.432205367563
 20
-1318.027013855178
 30
0.0
 40
0.0999999999999091
100
AcDbArc
 50
270.0
 51
90.0
  0
ARC
  5
354
330
1F
100
AcDbEntity
  8
0
  6
Continuous
 62
     2
100
AcDbCircle
 10
1777.652715503822
 20
-1317.057648661567
 30
0.0
 40
0.0794898637418555
100
AcDbArc
 50
0.0
 51
150.0000000002921
  0
ARC
  5
355
330
1F
100
AcDbEntity
  8
0
  6
Continuous
 62
     2
100
AcDbCircle
 10
1778.432205367563
 20
-1317.531033037897
 30
0.0
 40
0.0999999999983088
100
AcDbArc
 50
240.0183606317974
 51
60.01836063076873
  0
ARC
  5
356
330
1F
100
AcDbEntity
  8
0
  6
Continuous
 62
     2
100
AcDbCircle
 10
1778.032205367564
 20
-1317.300263807127
 30
0.0
 40
0.0999999999992178
100
AcDbArc
 50
60.01836063089461
 51
180.0
  0
CIRCLE
  5
357
330
1F
100
AcDbEntity
  8
1
  6
Continuous
 62
     7
100
AcDbCircle
 10
1699.053120723017
 20
-1335.265986773561
 30
0.0
 40
2.200000000000045
  0
CIRCLE
  5
358
330
1F
100
AcDbEntity
  8
0
  6
Continuous
 62
     7
100
AcDbCircle
 10
1699.053120723017
 20
-1335.265986773561
 30
0.0
 40
4.0
  0
SPLINE
  5
359
330
1F
100
AcDbEntity
  8
0
  6
Continuous
 62
     7
100
AcDbSpline
210
0.0
220
0.0
230
1.0
 70
     8
 71
     3
 72
    15
 73
    11
 74
     9
 42
0.000000001
 43
0.0000000001
 44
0.00000001
 40
0.0
 40
0.0
 40
0.0
 40
0.0
 40
0.0006740949885445
 40
0.0013635705875588
 40
0.0020822515586372
 40
0.0028424993002995
 40
0.0036549005039685
 40
0.0045282593557559
 40
0.0054697757841982
 40
0.0064852990400379
 40
0.0064852990400379
 40
0.0064852990400379
 40
0.0064852990400379
 10
1713.153120723017
 20
-1382.265986773561
 30
0.0
 10
1713.153110963151
 20
-1382.26621167003
 30
0.0
 10
1713.153091206378
 20
-1382.266666593265
 30
0.0
 10
1713.152932363692
 20
-1382.267346030044
 30
0.0
 10
1713.15267956266
 20
-1382.268024765906
 30
0.0
 10
1713.152323385202
 20
-1382.268702619
 30
0.0
 10
1713.151867065868
 20
-1382.26937998589
 30
0.0
 10
1713.151309075464
 20
-1382.270056319664
 30
0.0
 10
1713.150652486532
 20
-1382.270735554501
 30
0.0
 10
1713.150159822692
 20
-1382.271163530452
 30
0.0
 10
1713.149904171046
 20
-1382.27138560551
 30
0.0
 11
1713.153120723017
 21
-1382.265986773561
 31
0.0
 11
1713.15307084562
 21
-1382.266659023628
 31
0.0
 11
1713.152920994621
 21
-1382.267332021011
 31
0.0
 11
1713.15267084229
 21
-1382.268005764024
 31
0.0
 11
1713.152320062205
 21
-1382.268680251038
 31
0.0
 11
1713.151868328787
 21
-1382.269355480339
 31
0.0
 11
1713.151315317792
 21
-1382.270031450317
 31
0.0
 11
1713.150660705874
 21
-1382.270708159239
 31
0.0
 11
1713.149904171046
 21
-1382.27138560551
 31
0.0
  0
SPLINE
  5
35A
330
1F
100
AcDbEntity
  8
0
  6
Continuous
 62
     7
100
AcDbSpline
210
0.0
220
0.0
230
1.0
 70
     8
 71
     3
 72
     9
 73
     5
 74
     3
 42
0.000000001
 43
0.0000000001
 44
0.00000001
 40
0.0
 40
0.0
 40
0.0
 40
0.0
 40
1.181403805947645
 40
2.144497250747675
 40
2.144497250747675
 40
2.144497250747675
 40
2.144497250747675
 10
1786.045991360241
 20
-1355.773042009643
 30
0.0
 10
1785.763957511735
 20
-1355.481007124194
 30
0.0
 10
1785.252006541277
 20
-1354.950902187599
 30
0.0
 10
1784.531006429721
 20
-1354.823295094676
 30
0.0
 10
1784.207205367563
 20
-1354.765986773561
 30
0.0
 11
1786.045991360241
 21
-1355.773042009643
 31
0.0
 11
1785.136445285721
 21
-1355.019091814982
 31
0.0
 11
1784.207205367563
 21
-1354.765986773561
 31
0.0
  0
SPLINE
  5
35B
330
1F
100
AcDbEntity
  8
0
  6
Continuous
 62
     7
100
AcDbSpline
210
0.0
220
0.0
230
1.0
 70
     8
 71
     3
 72
    33
 73
    29
 74
    27
 42
0.000000001
 43
0.0000000001
 44
0.00000001
 40
0.0
 40
0.0
 40
0.0
 40
0.0
 40
0.1178076878659226
 40
0.2587396113950308
 40
0.3976296675866078
 40
0.5255692491642424
 40
0.6468981184368946
 40
0.7999337876427791
 40
0.9579359637798646
 40
1.081304388652932
 40
1.153409609158776
 40
1.22411547509589
 40
1.302759061998069
 40
1.368601202729536
 40
1.448747079509999
 40
1.514516513231019
 40
1.595827132936772
 40
1.661438603335284
 40
1.744269874770541
 40
1.810274720284904
 40
1.871197901897494
 40
1.923260606017198
 40
1.981475256481759
 40
2.035646355932995
 40
2.08711467470694
 40
2.142520156088081
 40
2.19814615567301
 40
2.264152161728781
 40
2.264152161728781
 40
2.264152161728781
 40
2.264152161728781
 10
1787.708355769866
 20
-1354.765986773561
 30
0.0
 10
1787.669082461065
 20
-1354.766707591765
 30
0.0
 10
1787.582826964344
 20
-1354.768290721675
 30
0.0
 10
1787.450754157337
 20
-1354.780905403224
 30
0.0
 10
1787.316243765928
 20
-1354.800707035027
 30
0.0
 10
1787.189252041391
 20
-1354.825723981363
 30
0.0
 10
1787.058785919624
 20
-1354.856857872941
 30
0.0
 10
1786.920055642724
 20
-1354.896096315397
 30
0.0
 10
1786.782572099945
 20
-1354.941708016811
 30
0.0
 10
1786.672321808276
 20
-1354.983350380446
 30
0.0
 10
1786.590288775544
 20
-1355.017176922354
 30
0.0
 10
1786.522708391678
 20
-1355.046892252688
 30
0.0
 10
1786.457807149278
 20
-1355.077463790325
 30
0.0
 10
1786.390976813285
 20
-1355.111249143943
 30
0.0
 10
1786.328994369249
 20
-1355.145058691726
 30
0.0
 10
1786.2638671311
 20
-1355.183753291693
 30
0.0
 10
1786.204508726852
 20
-1355.222592355811
 30
0.0
 10
1786.142793287238
 20
-1355.267989914749
 30
0.0
 10
1786.088195099611
 20
-1355.314293907003
 30
0.0
 10
1786.039431287219
 20
-1355.364558766337
 30
0.0
 10
1786.002917895095
 20
-1355.411962555916
 30
0.0
 10
1785.974613845216
 20
-1355.46173355247
 30
0.0
 10
1785.956272887177
 20
-1355.513857758064
 30
0.0
 10
1785.95045758176
 20
-1355.568690244088
 30
0.0
 10
1785.957516699117
 20
-1355.622373191972
 30
0.0
 10
1785.976217160023
 20
-1355.673579686728
 30
0.0
 10
1786.005771494256
 20
-1355.725006673308
 30
0.0
 10
1786.031843091065
 20
-1355.756144471713
 30
0.0
 10
1786.045991360241
 20
-1355.773042009643
 30
0.0
 11
1787.708355769866
 21
-1354.765986773561
 31
0.0
 11
1787.590601168539
 21
-1354.769522725666
 31
0.0
 11
1787.450237452301
 21
-1354.782165278488
 31
0.0
 11
1787.312827443011
 21
-1354.802387470625
 31
0.0
 11
1787.187277548474
 21
-1354.826999673217
 31
0.0
 11
1787.069252643804
 21
-1354.855121131121
 31
0.0
 11
1786.921978746804
 21
-1354.896718189962
 31
0.0
 11
1786.772017614574
 21
-1354.946481092519
 31
0.0
 11
1786.656622020844
 21
-1354.990111645941
 31
0.0
 11
1786.589967508971
 21
-1355.017613261646
 31
0.0
 11
1786.525250166498
 21
-1355.046091060997
 31
0.0
 11
1786.454121206704
 21
-1355.079639307329
 31
0.0
 11
1786.395375053752
 21
-1355.109372739747
 31
0.0
 11
1786.325054237642
 21
-1355.147821983902
 31
0.0
 11
1786.268543192286
 21
-1355.181468977181
 31
0.0
 11
1786.200598352046
 21
-1355.22613345465
 31
0.0
 11
1786.147825301116
 21
-1355.265118966481
 31
0.0
 11
1786.084930986328
 21
-1355.319020030257
 31
0.0
 11
1786.039227442037
 21
-1355.366641723401
 31
0.0
 11
1786.002380695899
 21
-1355.415159259887
 31
0.0
 11
1785.976953210675
 21
-1355.460590176118
 31
0.0
 11
1785.958114847271
 21
-1355.515672492608
 31
0.0
 11
1785.952565161535
 21
-1355.569558566941
 31
0.0
 11
1785.959110046861
 21
-1355.620609054955
 31
0.0
 11
1785.977625542995
 21
-1355.672829202554
 31
0.0
 11
1786.005244746444
 21
-1355.721114102753
 31
0.0
 11
1786.045991360241
 21
-1355.773042009643
 31
0.0
  0
SPLINE
  5
35C
330
1F
100
AcDbEntity
  8
0
  6
Continuous
 62
     7
100
AcDbSpline
210
0.0
220
0.0
230
1.0
 70
     8
 71
     3
 72
    11
 73
     7
 74
     5
 42
0.000000001
 43
0.0000000001
 44
0.00000001
 40
0.0
 40
0.0
 40
0.0
 40
0.0
 40
0.0320767713090535
 40
0.0627110639046785
 40
0.0853418011219782
 40
0.1083077326701364
 40
0.1083077326701364
 40
0.1083077326701364
 40
0.1083077326701364
 10
1791.419702644239
 20
-1355.649531931301
 30
0.0
 10
1791.428505728175
 20
-1355.643418308102
 30
0.0
 10
1791.445716016727
 20
-1355.631465978014
 30
0.0
 10
1791.465588763865
 20
-1355.610949083712
 30
0.0
 10
1791.479386892808
 20
-1355.588937013696
 30
0.0
 10
1791.481261287575
 20
-1355.57367425491
 30
0.0
 10
1791.482205367563
 20
-1355.565986773561
 30
0.0
 11
1791.419702644239
 21
-1355.649531931301
 31
0.0
 11
1791.445429721088
 21
-1355.630373732971
 31
0.0
 11
1791.466538841719
 21
-1355.608173167255
 31
0.0
 11
1791.477754890909
 21
-1355.588517361665
 31
0.0
 11
1791.482205367563
 21
-1355.565986773561
 31
0.0
  0
SPLINE
  5
35D
330
1F
100
AcDbEntity
  8
0
  6
Continuous
 62
     2
100
AcDbSpline
210
0.0
220
0.0
230
1.0
 70
    24
 71
     3
 72
    15
 73
    11
 74
     9
 42
0.000000001
 43
0.0000000001
 44
0.00000001
 40
0.0
 40
0.0
 40
0.0
 40
0.0
 40
0.0357979684754355
 40
0.0715959369515531
 40
0.1735867018155659
 40
0.312990918554533
 40
0.4814826447741325
 40
0.6689982609032086
 40
0.8389072133936679
 40
1.007055236081897
 40
1.007055236081897
 40
1.007055236081897
 40
1.007055236081897
 10
1788.482205367563
 20
-1354.765986773561
 30
0.0
 10
1788.482205367563
 20
-1354.77791942972
 30
0.0
 10
1788.482205367563
 20
-1354.801784742037
 30
0.0
 10
1788.482205367563
 20
-1354.859646975975
 30
0.0
 10
1788.482205367561
 20
-1354.952044626001
 30
0.0
 10
1788.482205367563
 20
-1355.088673528609
 30
0.0
 10
1788.482205367562
 20
-1355.253810714972
 30
0.0
 10
1788.482205367563
 20
-1355.429116146584
 30
0.0
 10
1788.482205367563
 20
-1355.604307010354
 30
0.0
 10
1788.482205367563
 20
-1355.716992668747
 30
0.0
 10
1788.482205367563
 20
-1355.773042009643
 30
0.0
 11
1788.482205367563
 21
-1354.765986773561
 31
0.0
 11
1788.482205367563
 21
-1354.801784742037
 31
0.0
 11
1788.482205367563
 21
-1354.837582710513
 31
0.0
 11
1788.482205367563
 21
-1354.939573475377
 31
0.0
 11
1788.482205367563
 21
-1355.078977692116
 31
0.0
 11
1788.482205367563
 21
-1355.247469418335
 31
0.0
 11
1788.482205367564
 21
-1355.434985034464
 31
0.0
 11
1788.482205367563
 21
-1355.604893986954
 31
0.0
 11
1788.482205367563
 21
-1355.773042009643
 31
0.0
  0
SPLINE
  5
35E
330
1F
100
AcDbEntity
  8
0
  6
Continuous
 62
     7
100
AcDbSpline
210
0.0
220
0.0
230
1.0
 70
     8
 71
     3
 72
     9
 73
     5
 74
     3
 42
0.000000001
 43
0.0000000001
 44
0.00000001
 40
0.0
 40
0.0
 40
0.0
 40
0.0
 40
0.9630934447992127
 40
2.144497250746537
 40
2.144497250746537
 40
2.144497250746537
 40
2.144497250746537
 10
1770.257205367563
 20
-1354.765986773561
 30
0.0
 10
1769.933404305405
 20
-1354.823295094677
 30
0.0
 10
1769.212404193851
 20
-1354.950902187599
 30
0.0
 10
1768.700453223391
 20
-1355.481007124194
 30
0.0
 10
1768.418419374886
 20
-1355.773042009643
 30
0.0
 11
1770.257205367563
 21
-1354.765986773561
 31
0.0
 11
1769.327965449406
 21
-1355.019091814982
 31
0.0
 11
1768.418419374886
 21
-1355.773042009643
 31
0.0
  0
SPLINE
  5
35F
330
1F
100
AcDbEntity
  8
0
  6
Continuous
 62
     2
100
AcDbSpline
210
0.0
220
0.0
230
1.0
 70
     8
 71
     3
 72
    13
 73
     9
 74
     7
 42
0.000000001
 43
0.0000000001
 44
0.00000001
 40
0.0
 40
0.0
 40
0.0
 40
0.0
 40
0.2254667574201084
 40
0.5788634415600219
 40
1.082009899227656
 40
1.715464126775349
 40
2.443153209659882
 40
3.220060774603786
 40
3.220060774603786
 40
3.220060774603786
 40
3.220060774603786
 10
1762.982205367563
 20
-1377.765986773561
 30
0.0
 10
1763.010405074685
 20
-1377.838004517594
 30
0.0
 10
1763.082805016711
 20
-1378.022902898257
 30
0.0
 10
1763.435280309025
 20
-1378.182574875025
 30
0.0
 10
1763.896455576899
 20
-1378.338472258462
 30
0.0
 10
1764.5133390856
 20
-1378.451391194002
 30
0.0
 10
1765.221157407333
 20
-1378.52820138193
 30
0.0
 10
1765.723050063713
 20
-1378.537593979878
 30
0.0
 10
1765.982205367563
 20
-1378.542443908869
 30
0.0
 11
1762.982205367563
 21
-1377.765986773561
 31
0.0
 11
1763.08442866126
 21
-1377.966948614306
 31
0.0
 11
1763.384129156209
 21
-1378.154215341214
 31
0.0
 11
1763.86088558956
 21
-1378.315024732861
 31
0.0
 11
1764.482205367563
 21
-1378.438418377687
 31
0.0
 11
1765.205748439264
 21
-1378.515986573607
 31
0.0
 11
1765.982205367563
 21
-1378.542443908869
 31
0.0
  0
SPLINE
  5
360
330
1F
100
AcDbEntity
  8
0
  6
Continuous
 62
     2
100
AcDbSpline
210
0.0
220
0.0
230
1.0
 70
     8
 71
     3
 72
    11
 73
     7
 74
     5
 42
0.000000001
 43
0.0000000001
 44
0.00000001
 40
0.0
 40
0.0
 40
0.0
 40
0.0
 40
0.208435660789243
 40
0.4470020736382825
 40
0.6922684945668037
 40
0.9060914018468463
 40
0.9060914018468463
 40
0.9060914018468463
 40
0.9060914018468463
 10
1765.079406717503
 20
-1355.847852938343
 30
0.0
 10
1765.148800003565
 20
-1355.844372016191
 30
0.0
 10
1765.29761783286
 20
-1355.836906965911
 30
0.0
 10
1765.527764959613
 20
-1355.819896274879
 30
0.0
 10
1765.759377483603
 20
-1355.798791010532
 30
0.0
 10
1765.911400137565
 20
-1355.781223952677
 30
0.0
 10
1765.982205367563
 20
-1355.773042009643
 30
0.0
 11
1765.079406717503
 21
-1355.847852938343
 31
0.0
 11
1765.287540828135
 21
-1355.836645052091
 31
0.0
 11
1765.525482617597
 21
-1355.819392856122
 31
0.0
 11
1765.769705300807
 21
-1355.796789795632
 31
0.0
 11
1765.982205367563
 21
-1355.773042009643
 31
0.0
  0
SPLINE
  5
361
330
1F
100
AcDbEntity
  8
0
  6
Continuous
 62
     2
100
AcDbSpline
210
0.0
220
0.0
230
1.0
 70
     8
 71
     3
 72
    11
 73
     7
 74
     5
 42
0.000000001
 43
0.0000000001
 44
0.00000001
 40
0.0
 40
0.0
 40
0.0
 40
0.0
 40
0.1393151036204875
 40
0.3329137016361048
 40
0.5109410170762377
 40
0.7445129880030374
 40
0.7445129880030374
 40
0.7445129880030374
 40
0.7445129880030374
 10
1763.383095419933
 20
-1355.764200930489
 30
0.0
 10
1763.42871784202
 20
-1355.772907311094
 30
0.0
 10
1763.537739257749
 20
-1355.793712457309
 30
0.0
 10
1763.706732531264
 20
-1355.815622373602
 30
0.0
 10
1763.907495190545
 20
-1355.835623467314
 30
0.0
 10
1764.044477596385
 20
-1355.843652710074
 30
0.0
 10
1764.122211576521
 20
-1355.848209090091
 30
0.0
 11
1763.383095419933
 21
-1355.764200930489
 31
0.0
 11
1763.520153476914
 21
-1355.789176663081
 31
0.0
 11
1763.711981709377
 21
-1355.815298429442
 31
0.0
 11
1763.889152077912
 21
-1355.832745081703
 31
0.0
 11
1764.122211576521
 21
-1355.848209090091
 31
0.0
  0
SPLINE
  5
362
330
1F
100
AcDbEntity
  8
0
  6
Continuous
 62
     2
100
AcDbSpline
210
0.0
220
0.0
230
1.0
 70
     8
 71
     3
 72
    11
 73
     7
 74
     5
 42
0.000000001
 43
0.0000000001
 44
0.00000001
 40
0.0
 40
0.0
 40
0.0
 40
0.0
 40
0.2030550808856545
 40
0.4556890851826942
 40
0.6833286681264259
 40
0.9575282450962802
 40
0.9575282450962802
 40
0.9575282450962802
 40
0.9575282450962802
 10
1764.122211576521
 20
-1355.848209090091
 30
0.0
 10
1764.189837260351
 20
-1355.851121703948
 30
0.0
 10
1764.341600446901
 20
-1355.857658073649
 30
0.0
 10
1764.569400469332
 20
-1355.860094959856
 30
0.0
 10
1764.820903145836
 20
-1355.857796575479
 30
0.0
 10
1764.988069047736
 20
-1355.8513663519
 30
0.0
 10
1765.079406717503
 20
-1355.847852938343
 30
0.0
 11
1764.122211576521
 21
-1355.848209090091
 31
0.0
 11
1764.325118222902
 21
-1355.855971744172
 31
0.0
 11
1764.577730232318
 21
-1355.859305358865
 31
0.0
 11
1764.805357420838
 21
-1355.856929888221
 31
0.0
 11
1765.079406717503
 21
-1355.847852938343
 31
0.0
  0
SPLINE
  5
363
330
1F
100
AcDbEntity
  8
0
  6
Continuous
 62
     7
100
AcDbSpline
210
0.0
220
0.0
230
1.0
 70
     8
 71
     3
 72
    11
 73
     7
 74
     5
 42
0.000000001
 43
0.0000000001
 44
0.00000001
 40
0.0
 40
0.0
 40
0.0
 40
0.0
 40
0.021507556110641
 40
0.0456036849542331
 40
0.0741748351435859
 40
0.1083183913688519
 40
0.1083183913688519
 40
0.1083183913688519
 40
0.1083183913688519
 10
1762.982205367563
 20
-1355.565986773561
 30
0.0
 10
1762.983035633766
 20
-1355.573184360682
 30
0.0
 10
1762.98479610862
 20
-1355.588445807958
 30
0.0
 10
1762.998110874727
 20
-1355.610011230062
 30
0.0
 10
1763.018137529257
 20
-1355.63102172718
 30
0.0
 10
1763.035341685654
 20
-1355.6430068932
 30
0.0
 10
1763.044708090885
 20
-1355.649531931299
 30
0.0
 11
1762.982205367563
 21
-1355.565986773561
 31
0.0
 11
1762.986125385645
 21
-1355.587134079639
 31
0.0
 11
1762.997871893407
 21
-1355.608173167254
 31
0.0
 11
1763.017419924799
 21
-1355.629010280084
 31
0.0
 11
1763.044708090885
 21
-1355.649531931299
 31
0.0
  0
SPLINE
  5
364
330
1F
100
AcDbEntity
  8
0
  6
Continuous
 62
     7
100
AcDbSpline
210
0.0
220
0.0
230
1.0
 70
     8
 71
     3
 72
    11
 73
     7
 74
     5
 42
0.000000001
 43
0.0000000001
 44
0.00000001
 40
0.0
 40
0.0
 40
0.0
 40
0.0
 40
0.058519088080522
 40
0.1471866755728927
 40
0.25588739453392
 40
0.358899975104193
 40
0.358899975104193
 40
0.358899975104193
 40
0.358899975104193
 10
1763.044708090885
 20
-1355.649531931299
 30
0.0
 10
1763.061619177435
 20
-1355.65930414039
 30
0.0
 10
1763.104153796066
 20
-1355.683883096167
 30
0.0
 10
1763.184500779339
 20
-1355.713552404542
 30
0.0
 10
1763.28055801696
 20
-1355.741821775781
 30
0.0
 10
1763.349534014686
 20
-1355.756876038136
 30
0.0
 10
1763.383095419933
 20
-1355.764200930489
 30
0.0
 11
1763.044708090885
 21
-1355.649531931299
 31
0.0
 11
1763.09602322744
 21
-1355.677660929838
 31
0.0
 11
1763.178441195482
 21
-1355.710359866546
 31
0.0
 11
1763.282712661863
 21
-1355.741073187549
 31
0.0
 11
1763.383095419933
 21
-1355.764200930489
 31
0.0
  0
SPLINE
  5
365
330
1F
100
AcDbEntity
  8
0
  6
Continuous
 62
     2
100
AcDbSpline
210
0.0
220
0.0
230
1.0
 70
    24
 71
     3
 72
    15
 73
    11
 74
     9
 42
0.000000001
 43
0.0000000001
 44
0.00000001
 40
0.0
 40
0.0
 40
0.0
 40
0.0
 40
0.1681480226886833
 40
0.3380569751791427
 40
0.5255725913082188
 40
0.6940643175275909
 40
0.8334685342656485
 40
0.9354592991296613
 40
0.9712572676057789
 40
1.007055236081897
 40
1.007055236081897
 40
1.007055236081897
 40
1.007055236081897
 10
1765.982205367563
 20
-1355.773042009643
 30
0.0
 10
1765.982205367562
 20
-1355.716992668746
 30
0.0
 10
1765.982205367562
 20
-1355.604307010354
 30
0.0
 10
1765.98220536756
 20
-1355.429116146584
 30
0.0
 10
1765.982205367561
 20
-1355.253810714971
 30
0.0
 10
1765.982205367562
 20
-1355.088673528609
 30
0.0
 10
1765.982205367563
 20
-1354.952044626002
 30
0.0
 10
1765.982205367563
 20
-1354.859646975976
 30
0.0
 10
1765.982205367563
 20
-1354.801784742037
 30
0.0
 10
1765.982205367563
 20
-1354.77791942972
 30
0.0
 10
1765.982205367563
 20
-1354.765986773561
 30
0.0
 11
1765.982205367563
 21
-1355.773042009643
 31
0.0
 11
1765.982205367563
 21
-1355.604893986955
 31
0.0
 11
1765.982205367563
 21
-1355.434985034465
 31
0.0
 11
1765.982205367563
 21
-1355.247469418336
 31
0.0
 11
1765.982205367564
 21
-1355.078977692116
 31
0.0
 11
1765.982205367563
 21
-1354.939573475377
 31
0.0
 11
1765.982205367563
 21
-1354.837582710513
 31
0.0
 11
1765.982205367563
 21
-1354.801784742037
 31
0.0
 11
1765.982205367563
 21
-1354.765986773561
 31
0.0
  0
SPLINE
  5
366
330
1F
100
AcDbEntity
  8
0
  6
Continuous
 62
     7
100
AcDbSpline
210
0.0
220
0.0
230
1.0
 70
     8
 71
     3
 72
    25
 73
    21
 74
    19
 42
0.000000001
 43
0.0000000001
 44
0.00000001
 40
0.0
 40
0.0
 40
0.0
 40
0.0
 40
0.0660060060061444
 40
0.1216320056460334
 40
0.1770374870507953
 40
0.2285058058318704
 40
0.2826769052925412
 40
0.3408915557315443
 40
0.392954259895387
 40
0.4538774414342625
 40
0.5198822869315642
 40
0.6027135583518525
 40
0.7545608160406945
 40
0.8954693603583304
 40
1.035944756768496
 40
1.182742922821039
 40
1.454328047289949
 40
1.738361214226945
 40
1.986935804690547
 40
2.263730065331428
 40
2.263730065331428
 40
2.263730065331428
 40
2.263730065331428
 10
1768.418419374886
 20
-1355.773042009643
 30
0.0
 10
1768.432567644059
 20
-1355.756144471702
 30
0.0
 10
1768.458639240995
 20
-1355.72500667334
 30
0.0
 10
1768.488193575087
 20
-1355.673579686994
 30
0.0
 10
1768.506894036323
 20
-1355.622373191208
 30
0.0
 10
1768.513953152413
 20
-1355.568690246831
 30
0.0
 10
1768.508137851815
 20
-1355.513857746851
 30
0.0
 10
1768.489796874793
 20
-1355.461733595726
 30
0.0
 10
1768.461492892949
 20
-1355.411962403619
 30
0.0
 10
1768.424979202787
 20
-1355.364559470639
 30
0.0
 10
1768.376216738098
 20
-1355.314290737952
 30
0.0
 10
1768.299654702187
 20
-1355.249390336084
 30
0.0
 10
1768.195765110653
 20
-1355.179011275565
 30
0.0
 10
1768.069813995755
 20
-1355.108194906397
 30
0.0
 10
1767.941372078234
 20
-1355.045780743683
 30
0.0
 10
1767.769910052102
 20
-1354.972822531021
 30
0.0
 10
1767.548854411207
 20
-1354.894737916978
 30
0.0
 10
1767.289486477257
 20
-1354.826325977855
 30
0.0
 10
1767.023537367518
 20
-1354.77718944509
 30
0.0
 10
1766.84835239552
 20
-1354.769852363875
 30
0.0
 10
1766.75605496526
 20
-1354.765986773561
 30
0.0
 11
1768.418419374886
 21
-1355.773042009643
 31
0.0
 11
1768.459165988678
 21
-1355.72111410276
 31
0.0
 11
1768.486785192132
 21
-1355.672829202554
 31
0.0
 11
1768.505300688266
 21
-1355.620609054955
 31
0.0
 11
1768.511845573592
 21
-1355.569558566941
 31
0.0
 11
1768.506295887853
 21
-1355.515672492595
 31
0.0
 11
1768.487457524452
 21
-1355.460590176118
 31
0.0
 11
1768.462030039196
 21
-1355.415159259839
 31
0.0
 11
1768.42518329309
 21
-1355.366641723401
 31
0.0
 11
1768.3794797488
 21
-1355.319020030258
 31
0.0
 11
1768.31658543401
 21
-1355.265118966481
 31
0.0
 11
1768.191627364694
 21
-1355.178845734609
 31
0.0
 11
1768.069035681375
 21
-1355.109372739747
 31
0.0
 11
1767.942799053955
 21
-1355.047747656586
 31
0.0
 11
1767.807788714282
 21
-1354.990111645941
 31
0.0
 11
1767.55173482289
 21
-1354.899586044516
 31
0.0
 11
1767.277133186653
 21
-1354.826999673217
 31
0.0
 11
1767.032236089426
 21
-1354.784399923009
 31
0.0
 11
1766.75605496526
 21
-1354.765986773561
 31
0.0
  0
SPLINE
  5
367
330
1F
100
AcDbEntity
  8
0
  6
Continuous
 62
     7
100
AcDbSpline
210
0.0
220
0.0
230
1.0
 70
     8
 71
     3
 72
    15
 73
    11
 74
     9
 42
0.000000001
 43
0.0000000001
 44
0.00000001
 40
0.0
 40
0.0
 40
0.0
 40
0.0
 40
0.0006740949885613
 40
0.0013635705876745
 40
0.0020822515586495
 40
0.0028424993001101
 40
0.0036549005038429
 40
0.0045282593562382
 40
0.0054697757843696
 40
0.0064852990405659
 40
0.0064852990405659
 40
0.0064852990405659
 40
0.0064852990405659
 10
1763.132205367563
 20
-1382.265986773561
 30
0.0
 10
1763.132215127429
 20
-1382.266211670031
 30
0.0
 10
1763.132234884203
 20
-1382.266666593265
 30
0.0
 10
1763.132393726888
 20
-1382.267346030043
 30
0.0
 10
1763.13264652792
 20
-1382.268024765906
 30
0.0
 10
1763.133002705377
 20
-1382.268702619001
 30
0.0
 10
1763.133459024713
 20
-1382.269379985891
 30
0.0
 10
1763.134017015117
 20
-1382.270056319664
 30
0.0
 10
1763.134673604048
 20
-1382.270735554502
 30
0.0
 10
1763.135166267889
 20
-1382.271163530452
 30
0.0
 10
1763.135421919535
 20
-1382.27138560551
 30
0.0
 11
1763.132205367563
 21
-1382.265986773561
 31
0.0
 11
1763.13225524496
 21
-1382.266659023628
 31
0.0
 11
1763.13240509596
 21
-1382.267332021011
 31
0.0
 11
1763.13265524829
 21
-1382.268005764025
 31
0.0
 11
1763.133006028375
 21
-1382.268680251038
 31
0.0
 11
1763.133457761794
 21
-1382.269355480338
 31
0.0
 11
1763.134010772789
 21
-1382.270031450317
 31
0.0
 11
1763.134665384706
 21
-1382.27070815924
 31
0.0
 11
1763.135421919535
 21
-1382.27138560551
 31
0.0
  0
SPLINE
  5
368
330
1F
100
AcDbEntity
  8
0
  6
Continuous
 62
     2
100
AcDbSpline
210
0.0
220
0.0
230
1.0
 70
     8
 71
     3
 72
    13
 73
     9
 74
     7
 42
0.000000001
 43
0.0000000001
 44
0.00000001
 40
0.0
 40
0.0
 40
0.0
 40
0.0
 40
0.2254667574201084
 40
0.5788634415600219
 40
1.082009899227656
 40
1.715464126775349
 40
2.443153209659204
 40
3.220060774603789
 40
3.220060774603789
 40
3.220060774603789
 40
3.220060774603789
 10
1791.482205367563
 20
-1377.765986773561
 30
0.0
 10
1791.454005660441
 20
-1377.838004517594
 30
0.0
 10
1791.381605718414
 20
-1378.022902898257
 30
0.0
 10
1791.029130426102
 20
-1378.182574875025
 30
0.0
 10
1790.567955158226
 20
-1378.338472258462
 30
0.0
 10
1789.951071649526
 20
-1378.451391194002
 30
0.0
 10
1789.243253327794
 20
-1378.52820138193
 30
0.0
 10
1788.741360671413
 20
-1378.537593979878
 30
0.0
 10
1788.482205367563
 20
-1378.542443908869
 30
0.0
 11
1791.482205367563
 21
-1377.765986773561
 31
0.0
 11
1791.379982073866
 21
-1377.966948614306
 31
0.0
 11
1791.080281578917
 21
-1378.154215341214
 31
0.0
 11
1790.603525145566
 21
-1378.315024732861
 31
0.0
 11
1789.982205367563
 21
-1378.438418377687
 31
0.0
 11
1789.258662295863
 21
-1378.515986573607
 31
0.0
 11
1788.482205367563
 21
-1378.542443908869
 31
0.0
  0
SPLINE
  5
369
330
1F
100
AcDbEntity
  8
0
  6
Continuous
 62
     2
100
AcDbSpline
210
0.0
220
0.0
230
1.0
 70
     8
 71
     3
 72
    11
 73
     7
 74
     5
 42
0.000000001
 43
0.0000000001
 44
0.00000001
 40
0.0
 40
0.0
 40
0.0
 40
0.0
 40
0.2146596859872771
 40
0.4115994431114516
 40
0.5884501211449907
 40
0.7445131425206476
 40
0.7445131425206476
 40
0.7445131425206476
 40
0.7445131425206476
 10
1790.342199158604
 20
-1355.848209090092
 30
0.0
 10
1790.413639480028
 20
-1355.84406120088
 30
0.0
 10
1790.550622799272
 20
-1355.836107811535
 30
0.0
 10
1790.745868953903
 20
-1355.816977889033
 30
0.0
 10
1790.921134518628
 20
-1355.794511680004
 30
0.0
 10
1791.030191616268
 20
-1355.77387498925
 30
0.0
 10
1791.081315315194
 20
-1355.764200930489
 30
0.0
 11
1790.342199158604
 21
-1355.848209090092
 31
0.0
 11
1790.556407045488
 21
-1355.834289252169
 31
0.0
 11
1790.752429025749
 21
-1355.815298429442
 31
0.0
 11
1790.927710289885
 21
-1355.791790112264
 31
0.0
 11
1791.081315315194
 21
-1355.764200930489
 31
0.0
  0
SPLINE
  5
36A
330
1F
100
AcDbEntity
  8
0
  6
Continuous
 62
     2
100
AcDbSpline
210
0.0
220
0.0
230
1.0
 70
     8
 71
     3
 72
    11
 73
     7
 74
     5
 42
0.000000001
 43
0.0000000001
 44
0.00000001
 40
0.0
 40
0.0
 40
0.0
 40
0.0
 40
0.1030125778830241
 40
0.2117132968444976
 40
0.2856624811447547
 40
0.3588887016245126
 40
0.3588887016245126
 40
0.3588887016245126
 40
0.3588887016245126
 10
1791.081315315194
 20
-1355.764200930489
 30
0.0
 10
1791.11487509335
 20
-1355.75687650194
 30
0.0
 10
1791.183847747618
 20
-1355.741823190754
 30
0.0
 10
1791.275221558008
 20
-1355.714932353934
 30
0.0
 10
1791.355612678592
 20
-1355.685698912533
 30
0.0
 10
1791.398409400837
 20
-1355.661548050949
 30
0.0
 10
1791.419702644239
 20
-1355.649531931301
 30
0.0
 11
1791.081315315194
 21
-1355.764200930489
 31
0.0
 11
1791.181698073273
 21
-1355.741073187546
 31
0.0
 11
1791.285969539643
 21
-1355.710359866547
 31
0.0
 11
1791.354970640352
 21
-1355.683764184918
 31
0.0
 11
1791.419702644239
 21
-1355.649531931301
 31
0.0
  0
SPLINE
  5
36B
330
1F
100
AcDbEntity
  8
0
  6
Continuous
 62
     2
100
AcDbSpline
210
0.0
220
0.0
230
1.0
 70
     8
 71
     3
 72
    11
 73
     7
 74
     5
 42
0.000000001
 43
0.0000000001
 44
0.00000001
 40
0.0
 40
0.0
 40
0.0
 40
0.0
 40
0.2430621158836637
 40
0.4590893297521357
 40
0.6844319327305013
 40
0.9060914757105509
 40
0.9060914757105509
 40
0.9060914757105509
 40
0.9060914757105509
 10
1788.482205367563
 20
-1355.773042009643
 30
0.0
 10
1788.562699232579
 20
-1355.782294154837
 30
0.0
 10
1788.714733928674
 20
-1355.799769348865
 30
0.0
 10
1788.941976370679
 20
-1355.820211619778
 30
0.0
 10
1789.162392532795
 20
-1355.83662502704
 30
0.0
 10
1789.311208911682
 20
-1355.844130921065
 30
0.0
 10
1789.385004017624
 20
-1355.847852938342
 30
0.0
 11
1788.482205367563
 21
-1355.773042009643
 31
0.0
 11
1788.723796387366
 21
-1355.799743533361
 31
0.0
 11
1788.93892811753
 21
-1355.819392856121
 31
0.0
 11
1789.163671782861
 21
-1355.835811555802
 31
0.0
 11
1789.385004017624
 21
-1355.847852938342
 31
0.0
  0
SPLINE
  5
36C
330
1F
100
AcDbEntity
  8
0
  6
Continuous
 62
     2
100
AcDbSpline
210
0.0
220
0.0
230
1.0
 70
     8
 71
     3
 72
    11
 73
     7
 74
     5
 42
0.000000001
 43
0.0000000001
 44
0.00000001
 40
0.0
 40
0.0
 40
0.0
 40
0.0
 40
0.2553901115698609
 40
0.5018393170612333
 40
0.7544733213205262
 40
0.9575284022570927
 40
0.9575284022570927
 40
0.9575284022570927
 40
0.9575284022570927
 10
1789.385004017624
 20
-1355.847852938342
 30
0.0
 10
1789.470074118006
 20
-1355.851158044259
 30
0.0
 10
1789.637236115534
 20
-1355.857652533289
 30
0.0
 10
1789.888740135161
 20
-1355.860166316565
 30
0.0
 10
1790.122810210181
 20
-1355.857657236514
 30
0.0
 10
1790.274573450707
 20
-1355.851121445911
 30
0.0
 10
1790.342199158604
 20
-1355.848209090092
 30
0.0
 11
1789.385004017624
 21
-1355.847852938342
 31
0.0
 11
1789.640247045529
 21
-1355.856519298855
 31
0.0
 11
1789.886680502809
 21
-1355.859305358866
 31
0.0
 11
1790.139292512182
 21
-1355.855971744174
 31
0.0
 11
1790.342199158604
 21
-1355.848209090092
 31
0.0
  0
SPLINE
  5
36D
330
1F
100
AcDbEntity
  8
0
  6
Continuous
 62
     2
100
AcDbSpline
210
0.0
220
0.0
230
1.0
 70
     8
 71
     3
 72
    11
 73
     7
 74
     5
 42
0.000000001
 43
0.0000000001
 44
0.00000001
 40
0.0
 40
0.0
 40
0.0
 40
0.0
 40
0.6692266903304347
 40
1.369064141515544
 40
2.090436444183833
 40
2.821427118722501
 40
2.821427118722501
 40
2.821427118722501
 40
2.821427118722501
 10
1684.785882305301
 20
-1375.765986773561
 30
0.0
 10
1684.562484256364
 20
-1375.752597287882
 30
0.0
 10
1684.105469822536
 20
-1375.725205859855
 30
0.0
 10
1683.43472760841
 20
-1375.517835980135
 30
0.0
 10
1682.783245731715
 20
-1375.208333710212
 30
0.0
 10
1682.397257450879
 20
-1374.914085316507
 30
0.0
 10
1682.202985197986
 20
-1374.765986773561
 30
0.0
 11
1684.785882305301
 21
-1375.765986773561
 31
0.0
 11
1684.11992547115
 21
-1375.69991212191
 31
0.0
 11
1683.447894620375
 21
-1375.504599561087
 31
0.0
 11
1682.799392517297
 21
-1375.188651742969
 31
0.0
 11
1682.202985197986
 21
-1374.765986773561
 31
0.0
  0
SPLINE
  5
36E
330
1F
100
AcDbEntity
  8
0
  6
Continuous
 62
     2
100
AcDbSpline
210
0.0
220
0.0
230
1.0
 70
     8
 71
     3
 72
    11
 73
     7
 74
     5
 42
0.000000001
 43
0.0000000001
 44
0.00000001
 40
0.0
 40
0.0
 40
0.0
 40
0.0
 40
0.7309906745386138
 40
1.452362977207008
 40
2.152200428392054
 40
2.821427118721606
 40
2.821427118721606
 40
2.821427118721606
 40
2.821427118721606
 10
1715.903256248047
 20
-1374.765986773561
 30
0.0
 10
1715.708983995154
 20
-1374.914085316508
 30
0.0
 10
1715.322995714318
 20
-1375.208333710212
 30
0.0
 10
1714.671513837623
 20
-1375.517835980135
 30
0.0
 10
1714.000771623497
 20
-1375.725205859854
 30
0.0
 10
1713.543757189668
 20
-1375.752597287882
 30
0.0
 10
1713.320359140733
 20
-1375.765986773561
 30
0.0
 11
1715.903256248047
 21
-1374.765986773561
 31
0.0
 11
1715.306848928736
 21
-1375.188651742969
 31
0.0
 11
1714.658346825658
 21
-1375.504599561087
 31
0.0
 11
1713.986315974883
 21
-1375.69991212191
 31
0.0
 11
1713.320359140733
 21
-1375.765986773561
 31
0.0
  0
SPLINE
  5
36F
330
1F
100
AcDbEntity
  8
0
  6
Continuous
 62
     2
100
AcDbSpline
210
0.0
220
0.0
230
1.0
 70
    24
 71
     3
 72
    15
 73
    11
 74
     9
 42
0.000000001
 43
0.0000000001
 44
0.00000001
 40
0.0
 40
0.0
 40
0.0
 40
0.0
 40
0.1177292231609499
 40
0.2328948893407414
 40
0.4115811024282721
 40
0.56568540392459
 40
0.6860034511009871
 40
0.7653495548336195
 40
0.782674777416787
 40
0.7999999999999545
 40
0.7999999999999545
 40
0.7999999999999545
 40
0.7999999999999545
 10
1679.373308618192
 20
-1355.565986773561
 30
0.0
 10
1679.373308618191
 20
-1355.526743699174
 30
0.0
 10
1679.373308618189
 20
-1355.449112069394
 30
0.0
 10
1679.373308618183
 20
-1355.311918368584
 30
0.0
 10
1679.373308618178
 20
-1355.162599641664
 30
0.0
 10
1679.373308618176
 20
-1355.011563454409
 30
0.0
 10
1679.373308618181
 20
-1354.893640636941
 30
0.0
 10
1679.373308618186
 20
-1354.821310845777
 30
0.0
 10
1679.37330861819
 20
-1354.783311996144
 30
0.0
 10
1679.373308618191
 20
-1354.771761847755
 30
0.0
 10
1679.373308618192
 20
-1354.765986773561
 30
0.0
 11
1679.373308618192
 21
-1355.565986773561
 31
0.0
 11
1679.373308618191
 21
-1355.448257550401
 31
0.0
 11
1679.373308618192
 21
-1355.333091884222
 31
0.0
 11
1679.373308618192
 21
-1355.154405671136
 31
0.0
 11
1679.373308618192
 21
-1355.00030136964
 31
0.0
 11
1679.373308618192
 21
-1354.879983322463
 31
0.0
 11
1679.373308618192
 21
-1354.800637218728
 31
0.0
 11
1679.373308618192
 21
-1354.783311996145
 31
0.0
 11
1679.373308618192
 21
-1354.765986773561
 31
0.0
  0
SPLINE
  5
370
330
1F
100
AcDbEntity
  8
0
  6
Continuous
 62
     2
100
AcDbSpline
210
0.0
220
0.0
230
1.0
 70
     8
 71
     3
 72
    11
 73
     7
 74
     5
 42
0.000000001
 43
0.0000000001
 44
0.00000001
 40
0.0
 40
0.0
 40
0.0
 40
0.0
 40
0.1521686129492319
 40
0.305414760998216
 40
0.459521308961243
 40
0.6140021305900313
 40
0.6140021305900313
 40
0.6140021305900313
 40
0.6140021305900313
 10
1678.765017065674
 20
-1355.649531931301
 30
0.0
 10
1678.815277618787
 20
-1355.642699144358
 30
0.0
 10
1678.916154627588
 20
-1355.628985171311
 30
0.0
 10
1679.067904518115
 20
-1355.608148064377
 30
0.0
 10
1679.220406365737
 20
-1355.587121961096
 30
0.0
 10
1679.322300007109
 20
-1355.573037535182
 30
0.0
 10
1679.373308618192
 20
-1355.565986773561
 30
0.0
 11
1678.765017065674
 21
-1355.649531931301
 31
0.0
 11
1678.915794144113
 21
-1355.62900001988
 31
0.0
 11
1679.067618463986
 21
-1355.608173167255
 31
0.0
 11
1679.220281565943
 21
-1355.58713022476
 31
0.0
 11
1679.373308618192
 21
-1355.565986773561
 31
0.0
  0
SPLINE
  5
371
330
1F
100
AcDbEntity
  8
0
  6
Continuous
 62
     7
100
AcDbSpline
210
0.0
220
0.0
230
1.0
 70
     8
 71
     3
 72
    11
 73
     7
 74
     5
 42
0.000000001
 43
0.0000000001
 44
0.00000001
 40
0.0
 40
0.0
 40
0.0
 40
0.0
 40
0.561669875557596
 40
1.135640618277854
 40
1.735680579073241
 40
2.369680620724248
 40
2.369680620724248
 40
2.369680620724248
 40
2.369680620724248
 10
1678.45169650395
 20
-1360.765986773561
 30
0.0
 10
1678.567535635926
 20
-1360.617295046606
 30
0.0
 10
1678.801750849038
 20
-1360.316655175135
 30
0.0
 10
1679.299579072292
 20
-1360.003435304763
 30
0.0
 10
1679.874095968631
 20
-1359.80109062915
 30
0.0
 10
1680.286710500577
 20
-1359.777900777649
 30
0.0
 10
1680.498695226403
 20
-1359.765986773561
 30
0.0
 11
1678.45169650395
 21
-1360.765986773561
 31
0.0
 11
1678.821598348818
 21
-1360.343321804153
 31
0.0
 11
1679.300784526466
 21
-1360.027373986035
 31
0.0
 11
1679.868147691351
 21
-1359.832061425212
 31
0.0
 11
1680.498695226403
 21
-1359.765986773561
 31
0.0
  0
SPLINE
  5
372
330
1F
100
AcDbEntity
  8
0
  6
Continuous
 62
     2
100
AcDbSpline
210
0.0
220
0.0
230
1.0
 70
     8
 71
     3
 72
    11
 73
     7
 74
     5
 42
0.000000001
 43
0.0000000001
 44
0.00000001
 40
0.0
 40
0.0
 40
0.0
 40
0.0
 40
0.0300007697958136
 40
0.0688384591490728
 40
0.1210532306017993
 40
0.1879775637494353
 40
0.1879775637494353
 40
0.1879775637494353
 40
0.1879775637494353
 10
1721.783281085775
 20
-1355.773042009643
 30
0.0
 10
1721.778660789062
 20
-1355.78214341207
 30
0.0
 10
1721.768059243674
 20
-1355.803027083462
 30
0.0
 10
1721.730617807667
 20
-1355.822549589882
 30
0.0
 10
1721.680828817804
 20
-1355.838496408689
 30
0.0
 10
1721.641409131716
 20
-1355.84448752872
 30
0.0
 10
1721.619265803803
 20
-1355.847852938342
 30
0.0
 11
1721.783281085775
 21
-1355.773042009643
 31
0.0
 11
1721.767389794909
 21
-1355.798488292493
 31
0.0
 11
1721.734658065386
 21
-1355.819392856121
 31
0.0
 11
1721.685105383709
 21
-1355.835852322594
 31
0.0
 11
1721.619265803803
 21
-1355.847852938342
 31
0.0
  0
SPLINE
  5
373
330
1F
100
AcDbEntity
  8
0
  6
Continuous
 62
     2
100
AcDbSpline
210
0.0
220
0.0
230
1.0
 70
     8
 71
     3
 72
    11
 73
     7
 74
     5
 42
0.000000001
 43
0.0000000001
 44
0.00000001
 40
0.0
 40
0.0
 40
0.0
 40
0.0
 40
0.0999243958249294
 40
0.2208889740811812
 40
0.3637234916031968
 40
0.5257578580680508
 40
0.5257578580680508
 40
0.5257578580680508
 40
0.5257578580680508
 10
1721.619265803803
 20
-1355.847852938342
 30
0.0
 10
1721.586111764793
 20
-1355.851196702234
 30
0.0
 10
1721.512822737245
 20
-1355.858588280602
 30
0.0
 10
1721.391469411954
 20
-1355.859971424466
 30
0.0
 10
1721.249553742884
 20
-1355.857115703664
 30
0.0
 10
1721.14808488108
 20
-1355.851300051248
 30
0.0
 10
1721.094155328085
 20
-1355.848209090092
 30
0.0
 11
1721.619265803803
 21
-1355.847852938342
 31
0.0
 11
1721.519720039222
 21
-1355.856543493349
 31
0.0
 11
1721.398786992994
 21
-1355.859305358866
 31
0.0
 11
1721.255981687051
 21
-1355.856416694529
 31
0.0
 11
1721.094155328085
 21
-1355.848209090092
 31
0.0
  0
SPLINE
  5
374
330
1F
100
AcDbEntity
  8
0
  6
Continuous
 62
     2
100
AcDbSpline
210
0.0
220
0.0
230
1.0
 70
     8
 71
     3
 72
    11
 73
     7
 74
     5
 42
0.000000001
 43
0.0000000001
 44
0.00000001
 40
0.0
 40
0.0
 40
0.0
 40
0.0
 40
0.1905855457644966
 40
0.3990746305630118
 40
0.6261779409487951
 40
0.8674505863151903
 40
0.8674505863151903
 40
0.8674505863151903
 40
0.8674505863151903
 10
1721.094155328085
 20
-1355.848209090092
 30
0.0
 10
1721.030779165142
 20
-1355.843783819001
 30
0.0
 10
1720.89807330597
 20
-1355.834517553113
 30
0.0
 10
1720.690240155631
 20
-1355.815073019305
 30
0.0
 10
1720.465833455391
 20
-1355.791662709202
 30
0.0
 10
1720.310762131353
 20
-1355.773537635374
 30
0.0
 10
1720.230880857117
 20
-1355.764200930489
 30
0.0
 11
1721.094155328085
 21
-1355.848209090092
 31
0.0
 11
1720.90408385724
 21
-1355.834220298957
 31
0.0
 11
1720.696455194889
 21
-1355.815298429442
 31
0.0
 11
1720.470581268465
 21
-1355.791700060388
 31
0.0
 11
1720.230880857117
 21
-1355.764200930489
 31
0.0
  0
SPLINE
  5
375
330
1F
100
AcDbEntity
  8
0
  6
Continuous
 62
     2
100
AcDbSpline
210
0.0
220
0.0
230
1.0
 70
     8
 71
     3
 72
    11
 73
     7
 74
     5
 42
0.000000001
 43
0.0000000001
 44
0.00000001
 40
0.0
 40
0.0
 40
0.0
 40
0.0
 40
0.2139015718107449
 40
0.435135840330067
 40
0.6636949319511332
 40
0.8970251245501752
 40
0.8970251245501752
 40
0.8970251245501752
 40
0.8970251245501752
 10
1720.230880857117
 20
-1355.764200930489
 30
0.0
 10
1720.160095507781
 20
-1355.755643684286
 30
0.0
 10
1720.016098239258
 20
-1355.738235828438
 30
0.0
 10
1719.796652692987
 20
-1355.710169977342
 30
0.0
 10
1719.570881854518
 20
-1355.680530038367
 30
0.0
 10
1719.418302229874
 20
-1355.659935549138
 30
0.0
 10
1719.341224380359
 20
-1355.649531931301
 30
0.0
 11
1720.230880857117
 21
-1355.764200930489
 31
0.0
 11
1720.018554532275
 21
-1355.738289268667
 31
0.0
 11
1719.799090298083
 21
-1355.710359866547
 31
0.0
 11
1719.572476755668
 21
-1355.680601493344
 31
0.0
 11
1719.341224380359
 21
-1355.649531931301
 31
0.0
  0
SPLINE
  5
376
330
1F
100
AcDbEntity
  8
0
  6
Continuous
 62
     7
100
AcDbSpline
210
0.0
220
0.0
230
1.0
 70
     8
 71
     3
 72
    11
 73
     7
 74
     5
 42
0.000000001
 43
0.0000000001
 44
0.00000001
 40
0.0
 40
0.0
 40
0.0
 40
0.0
 40
0.561669875556997
 40
1.135640618277634
 40
1.735680579073452
 40
2.369680620723328
 40
2.369680620723328
 40
2.369680620723328
 40
2.369680620723328
 10
1719.654544942083
 20
-1360.765986773561
 30
0.0
 10
1719.538705810107
 20
-1360.617295046606
 30
0.0
 10
1719.304490596996
 20
-1360.316655175135
 30
0.0
 10
1718.80666237374
 20
-1360.003435304763
 30
0.0
 10
1718.232145477403
 20
-1359.80109062915
 30
0.0
 10
1717.819530945457
 20
-1359.777900777649
 30
0.0
 10
1717.607546219631
 20
-1359.765986773561
 30
0.0
 11
1719.654544942083
 21
-1360.765986773561
 31
0.0
 11
1719.284643097216
 21
-1360.343321804153
 31
0.0
 11
1718.805456919567
 21
-1360.027373986035
 31
0.0
 11
1718.238093754682
 21
-1359.832061425212
 31
0.0
 11
1717.607546219631
 21
-1359.765986773561
 31
0.0
  0
SPLINE
  5
377
330
1F
100
AcDbEntity
  8
0
  6
Continuous
 62
     7
100
AcDbSpline
210
0.0
220
0.0
230
1.0
 70
     8
 71
     3
 72
    11
 73
     7
 74
     5
 42
0.000000001
 43
0.0000000001
 44
0.00000001
 40
0.0
 40
0.0
 40
0.0
 40
0.0
 40
0.030000769792994
 40
0.0688384591490792
 40
0.1210532305521173
 40
0.1879775637495189
 40
0.1879775637495189
 40
0.1879775637495189
 40
0.1879775637495189
 10
1676.322960360258
 20
-1355.773042009643
 30
0.0
 10
1676.32758065697
 20
-1355.782143412069
 30
0.0
 10
1676.338182202359
 20
-1355.803027083462
 30
0.0
 10
1676.37562363835
 20
-1355.822549589873
 30
0.0
 10
1676.425412628212
 20
-1355.838496408685
 30
0.0
 10
1676.4648323143
 20
-1355.844487528718
 30
0.0
 10
1676.48697564223
 20
-1355.847852938342
 30
0.0
 11
1676.322960360258
 21
-1355.773042009643
 31
0.0
 11
1676.338851651122
 21
-1355.798488292491
 31
0.0
 11
1676.371583380647
 21
-1355.819392856121
 31
0.0
 11
1676.421136062276
 21
-1355.835852322582
 31
0.0
 11
1676.48697564223
 21
-1355.847852938342
 31
0.0
  0
SPLINE
  5
378
330
1F
100
AcDbEntity
  8
0
  6
Continuous
 62
     2
100
AcDbSpline
210
0.0
220
0.0
230
1.0
 70
     8
 71
     3
 72
    11
 73
     7
 74
     5
 42
0.000000001
 43
0.0000000001
 44
0.00000001
 40
0.0
 40
0.0
 40
0.0
 40
0.0
 40
0.0999243958704296
 40
0.2208889740823031
 40
0.3637234915501735
 40
0.5257578580680411
 40
0.5257578580680411
 40
0.5257578580680411
 40
0.5257578580680411
 10
1676.48697564223
 20
-1355.847852938342
 30
0.0
 10
1676.520129681255
 20
-1355.851196702236
 30
0.0
 10
1676.593418708804
 20
-1355.858588280603
 30
0.0
 10
1676.714772034077
 20
-1355.859971424465
 30
0.0
 10
1676.856687703131
 20
-1355.857115703664
 30
0.0
 10
1676.958156564936
 20
-1355.851300051249
 30
0.0
 10
1677.012086117948
 20
-1355.848209090092
 30
0.0
 11
1676.48697564223
 21
-1355.847852938342
 31
0.0
 11
1676.586521406857
 21
-1355.856543493352
 31
0.0
 11
1676.70745445304
 21
-1355.859305358866
 31
0.0
 11
1676.850259758929
 21
-1355.856416694531
 31
0.0
 11
1677.012086117948
 21
-1355.848209090092
 31
0.0
  0
SPLINE
  5
379
330
1F
100
AcDbEntity
  8
0
  6
Continuous
 62
     2
100
AcDbSpline
210
0.0
220
0.0
230
1.0
 70
    24
 71
     3
 72
    15
 73
    11
 74
     9
 42
0.000000001
 43
0.0000000001
 44
0.00000001
 40
0.0
 40
0.0
 40
0.0
 40
0.0
 40
0.1177292231604952
 40
0.2328948893407414
 40
0.4115811024282721
 40
0.56568540392459
 40
0.6860034511009871
 40
0.7653495548336195
 40
0.782674777416787
 40
0.7999999999999545
 40
0.7999999999999545
 40
0.7999999999999545
 40
0.7999999999999545
 10
1718.732932827842
 20
-1355.565986773561
 30
0.0
 10
1718.732932827842
 20
-1355.526743699174
 30
0.0
 10
1718.73293282784
 20
-1355.449112069394
 30
0.0
 10
1718.732932827832
 20
-1355.311918368584
 30
0.0
 10
1718.732932827823
 20
-1355.162599641663
 30
0.0
 10
1718.732932827819
 20
-1355.011563454409
 30
0.0
 10
1718.732932827826
 20
-1354.893640636942
 30
0.0
 10
1718.732932827833
 20
-1354.821310845777
 30
0.0
 10
1718.732932827839
 20
-1354.783311996144
 30
0.0
 10
1718.732932827841
 20
-1354.771761847755
 30
0.0
 10
1718.732932827842
 20
-1354.765986773561
 30
0.0
 11
1718.732932827842
 21
-1355.565986773561
 31
0.0
 11
1718.732932827842
 21
-1355.448257550401
 31
0.0
 11
1718.732932827842
 21
-1355.333091884222
 31
0.0
 11
1718.732932827842
 21
-1355.154405671136
 31
0.0
 11
1718.732932827842
 21
-1355.00030136964
 31
0.0
 11
1718.732932827842
 21
-1354.879983322463
 31
0.0
 11
1718.732932827841
 21
-1354.800637218728
 31
0.0
 11
1718.732932827841
 21
-1354.783311996145
 31
0.0
 11
1718.732932827842
 21
-1354.765986773561
 31
0.0
  0
SPLINE
  5
37A
330
1F
100
AcDbEntity
  8
0
  6
Continuous
 62
     2
100
AcDbSpline
210
0.0
220
0.0
230
1.0
 70
     8
 71
     3
 72
    11
 73
     7
 74
     5
 42
0.000000001
 43
0.0000000001
 44
0.00000001
 40
0.0
 40
0.0
 40
0.0
 40
0.0
 40
0.1521686130401665
 40
0.3054147609973145
 40
0.4595213089416931
 40
0.614002130589355
 40
0.614002130589355
 40
0.614002130589355
 40
0.614002130589355
 10
1719.341224380359
 20
-1355.649531931301
 30
0.0
 10
1719.290963827216
 20
-1355.642699144355
 30
0.0
 10
1719.190086818415
 20
-1355.628985171307
 30
0.0
 10
1719.038336927895
 20
-1355.608148064374
 30
0.0
 10
1718.885835080303
 20
-1355.587121961097
 30
0.0
 10
1718.783941438931
 20
-1355.573037535183
 30
0.0
 10
1718.732932827842
 20
-1355.565986773561
 30
0.0
 11
1719.341224380359
 21
-1355.649531931301
 31
0.0
 11
1719.19044730183
 21
-1355.629000019868
 31
0.0
 11
1719.038622982048
 21
-1355.608173167255
 31
0.0
 11
1718.88595988011
 21
-1355.587130224763
 31
0.0
 11
1718.732932827842
 21
-1355.565986773561
 31
0.0
  0
SPLINE
  5
37B
330
1F
100
AcDbEntity
  8
0
  6
Continuous
 62
     2
100
AcDbSpline
210
0.0
220
0.0
230
1.0
 70
     8
 71
     3
 72
    11
 73
     7
 74
     5
 42
0.000000001
 43
0.0000000001
 44
0.00000001
 40
0.0
 40
0.0
 40
0.0
 40
0.0
 40
0.2139015717833029
 40
0.4351358403300647
 40
0.6636949319644135
 40
0.8970251245503988
 40
0.8970251245503988
 40
0.8970251245503988
 40
0.8970251245503988
 10
1677.875360588916
 20
-1355.764200930489
 30
0.0
 10
1677.946145938242
 20
-1355.755643684287
 30
0.0
 10
1678.090143206766
 20
-1355.738235828438
 30
0.0
 10
1678.309588753042
 20
-1355.710169977343
 30
0.0
 10
1678.53535959152
 20
-1355.680530038366
 30
0.0
 10
1678.687939216164
 20
-1355.659935549138
 30
0.0
 10
1678.765017065674
 20
-1355.649531931301
 30
0.0
 11
1677.875360588916
 21
-1355.764200930489
 31
0.0
 11
1678.08768691373
 21
-1355.73828926867
 31
0.0
 11
1678.30715114795
 21
-1355.710359866547
 31
0.0
 11
1678.533764690378
 21
-1355.680601493343
 31
0.0
 11
1678.765017065674
 21
-1355.649531931301
 31
0.0
  0
SPLINE
  5
37C
330
1F
100
AcDbEntity
  8
0
  6
Continuous
 62
     2
100
AcDbSpline
210
0.0
220
0.0
230
1.0
 70
     8
 71
     3
 72
    11
 73
     7
 74
     5
 42
0.000000001
 43
0.0000000001
 44
0.00000001
 40
0.0
 40
0.0
 40
0.0
 40
0.0
 40
0.1905855458112495
 40
0.3990746305630153
 40
0.6261779408900183
 40
0.8674505863151935
 40
0.8674505863151935
 40
0.8674505863151935
 40
0.8674505863151935
 10
1677.012086117948
 20
-1355.848209090092
 30
0.0
 10
1677.075462280907
 20
-1355.843783819
 30
0.0
 10
1677.208168140079
 20
-1355.834517553112
 30
0.0
 10
1677.416001290398
 20
-1355.815073019306
 30
0.0
 10
1677.640407990622
 20
-1355.791662709204
 30
0.0
 10
1677.79547931466
 20
-1355.773537635376
 30
0.0
 10
1677.875360588916
 20
-1355.764200930489
 30
0.0
 11
1677.012086117948
 21
-1355.848209090092
 31
0.0
 11
1677.202157588839
 21
-1355.834220298953
 31
0.0
 11
1677.409786251144
 21
-1355.815298429442
 31
0.0
 11
1677.63566017751
 21
-1355.791700060395
 31
0.0
 11
1677.875360588916
 21
-1355.764200930489
 31
0.0
  0
SPLINE
  5
37D
330
1F
100
AcDbEntity
  8
0
  6
Continuous
 62
     7
100
AcDbSpline
210
0.0
220
0.0
230
1.0
 70
     8
 71
     3
 72
    13
 73
     9
 74
     7
 42
0.000000001
 43
0.0000000001
 44
0.00000001
 40
0.0
 40
0.0
 40
0.0
 40
0.0
 40
0.4903620139796135
 40
0.9161032695311602
 40
1.107798322887126
 40
1.284288309413277
 40
1.445760335277037
 40
1.596841441369163
 40
1.596841441369163
 40
1.596841441369163
 40
1.596841441369163
 10
1691.412736497829
 20
-1380.265986773561
 30
0.0
 10
1691.261347439563
 20
-1380.327609139568
 30
0.0
 10
1690.978519641508
 20
-1380.442733181857
 30
0.0
 10
1690.638482602566
 20
-1380.586903199667
 30
0.0
 10
1690.389399560771
 20
-1380.676768565938
 30
0.0
 10
1690.219833819841
 20
-1380.726092203597
 30
0.0
 10
1690.059651044228
 20
-1380.759261012034
 30
0.0
 10
1689.955417585529
 20
-1380.763795104479
 30
0.0
 10
1689.905033491251
 20
-1380.765986773561
 30
0.0
 11
1691.412736497829
 21
-1380.265986773561
 31
0.0
 11
1690.959036708198
 21
-1380.452028173869
 31
0.0
 11
1690.564650004383
 21
-1380.61238634507
 31
0.0
 11
1690.383989757319
 21
-1380.6764867971
 31
0.0
 11
1690.214343841952
 21
-1380.725158936833
 31
0.0
 11
1690.055751463079
 21
-1380.755518042377
 31
0.0
 11
1689.905033491251
 21
-1380.765986773561
 31
0.0
  0
SPLINE
  5
37E
330
1F
100
AcDbEntity
  8
0
  6
Continuous
 62
     7
100
AcDbSpline
210
0.0
220
0.0
230
1.0
 70
     8
 71
     3
 72
    13
 73
     9
 74
     7
 42
0.000000001
 43
0.0000000001
 44
0.00000001
 40
0.0
 40
0.0
 40
0.0
 40
0.0
 40
0.1510811060916407
 40
0.312553131957049
 40
0.4890431184826376
 40
0.68073817183897
 40
1.106479427390306
 40
1.596841441369499
 40
1.596841441369499
 40
1.596841441369499
 40
1.596841441369499
 10
1708.201207954783
 20
-1380.765986773561
 30
0.0
 10
1708.150823860504
 20
-1380.763795104479
 30
0.0
 10
1708.046590401806
 20
-1380.759261012034
 30
0.0
 10
1707.886407626193
 20
-1380.726092203597
 30
0.0
 10
1707.716841885263
 20
-1380.676768565938
 30
0.0
 10
1707.467758843468
 20
-1380.586903199666
 30
0.0
 10
1707.127721804525
 20
-1380.442733181857
 30
0.0
 10
1706.844894006472
 20
-1380.327609139567
 30
0.0
 10
1706.693504948205
 20
-1380.265986773561
 30
0.0
 11
1708.201207954783
 21
-1380.765986773561
 31
0.0
 11
1708.050489982956
 21
-1380.755518042378
 31
0.0
 11
1707.891897604081
 21
-1380.725158936833
 31
0.0
 11
1707.722251688714
 21
-1380.676486797101
 31
0.0
 11
1707.54159144165
 21
-1380.61238634507
 31
0.0
 11
1707.147204737835
 21
-1380.452028173869
 31
0.0
 11
1706.693504948205
 21
-1380.265986773561
 31
0.0
  0
SPLINE
  5
37F
330
1F
100
AcDbEntity
  8
0
  6
Continuous
 62
     7
100
AcDbSpline
210
0.0
220
0.0
230
1.0
 70
     8
 71
     3
 72
    21
 73
    17
 74
    15
 42
0.000000001
 43
0.0000000001
 44
0.00000001
 40
0.0
 40
0.0
 40
0.0
 40
0.0
 40
0.1985912669847569
 40
0.4088850257891698
 40
0.6964007354735907
 40
1.059345302530138
 40
1.290271677533768
 40
1.578262398728119
 40
1.831173233651802
 40
2.087717492895538
 40
2.352379899496195
 40
2.590735446756465
 40
2.854321724742954
 40
3.085181019199014
 40
3.560314326138243
 40
4.044940781988385
 40
4.044940781988385
 40
4.044940781988385
 40
4.044940781988385
 10
1703.736869221815
 20
-1377.765986773584
 30
0.0
 10
1703.740811770512
 20
-1377.832284888021
 30
0.0
 10
1703.748929207107
 20
-1377.968787898429
 30
0.0
 10
1703.820135726928
 20
-1378.191961141761
 30
0.0
 10
1703.956099756223
 20
-1378.446164883056
 30
0.0
 10
1704.140534832444
 20
-1378.67682720449
 30
0.0
 10
1704.347034250053
 20
-1378.886183251848
 30
0.0
 10
1704.540760928903
 20
-1379.0558826943
 30
0.0
 10
1704.750577600188
 20
-1379.219222535194
 30
0.0
 10
1704.961205449271
 20
-1379.368423945822
 30
0.0
 10
1705.173437177481
 20
-1379.506594331111
 30
0.0
 10
1705.392124421397
 20
-1379.638849647616
 30
0.0
 10
1705.604867970012
 20
-1379.758969193793
 30
0.0
 10
1705.890666037079
 20
-1379.90989655849
 30
0.0
 10
1706.247910335404
 20
-1380.083385271146
 30
0.0
 10
1706.543997195715
 20
-1380.204719558858
 30
0.0
 10
1706.693504948205
 20
-1380.265986773561
 30
0.0
 11
1703.736869221815
 21
-1377.765986773584
 31
0.0
 11
1703.756644349068
 21
-1377.963591020779
 31
0.0
 11
1703.817188888663
 21
-1378.164980754989
 31
0.0
 11
1703.950704203173
 21
-1378.419615675756
 31
0.0
 11
1704.173685205831
 21
-1378.705986467533
 31
0.0
 11
1704.335401879237
 21
-1378.870833997152
 31
0.0
 11
1704.551423328115
 21
-1379.061289737194
 31
0.0
 11
1704.750748687874
 21
-1379.216960194476
 31
0.0
 11
1704.959921636389
 21
-1379.3654917887
 31
0.0
 11
1705.181602885279
 21
-1379.510072607985
 31
0.0
 11
1705.385498301747
 21
-1379.633523108316
 31
0.0
 11
1705.614994376287
 21
-1379.763173706918
 31
0.0
 11
1705.81906147791
 21
-1379.871121064026
 31
0.0
 11
1706.247049942108
 21
-1380.07746430822
 31
0.0
 11
1706.693504948205
 21
-1380.265986773561
 31
0.0
  0
SPLINE
  5
380
330
1F
100
AcDbEntity
  8
0
  6
Continuous
 62
     7
100
AcDbSpline
210
0.0
220
0.0
230
1.0
 70
     8
 71
     3
 72
    21
 73
    17
 74
    15
 42
0.000000001
 43
0.0000000001
 44
0.00000001
 40
0.0
 40
0.0
 40
0.0
 40
0.0
 40
0.4846264555546147
 40
0.959759762484792
 40
1.190619056941102
 40
1.45420533497312
 40
1.692560882269078
 40
1.957223288882809
 40
2.205662053945235
 40
2.466677809407107
 40
2.754668530620968
 40
2.985594905655704
 40
3.348539472729191
 40
3.636055182428255
 40
3.846348941279061
 40
4.044940208317393
 40
4.044940208317393
 40
4.044940208317393
 40
4.044940208317393
 10
1691.412736497829
 20
-1380.265986773561
 30
0.0
 10
1691.562244249274
 20
-1380.204719558975
 30
0.0
 10
1691.858331107603
 20
-1380.083385271457
 30
0.0
 10
1692.215575417426
 20
-1379.909896557918
 30
0.0
 10
1692.501373460234
 20
-1379.758969195189
 30
0.0
 10
1692.714117090561
 20
-1379.638849642393
 30
0.0
 10
1692.932804038018
 20
-1379.506594349876
 30
0.0
 10
1693.142772158161
 20
-1379.36989832317
 30
0.0
 10
1693.353483753974
 20
-1379.220827742044
 30
0.0
 10
1693.563446567753
 20
-1379.057663774292
 30
0.0
 10
1693.759207117846
 20
-1378.886183450385
 30
0.0
 10
1693.965706645107
 20
-1378.676827124237
 30
0.0
 10
1694.150141681914
 20
-1378.446164903081
 30
0.0
 10
1694.286105720406
 20
-1378.191961138449
 30
0.0
 10
1694.357312238655
 20
-1377.968787899141
 30
0.0
 10
1694.365429675433
 20
-1377.83228488824
 30
0.0
 10
1694.369372224218
 20
-1377.765986773561
 30
0.0
 11
1691.412736497829
 21
-1380.265986773561
 31
0.0
 11
1691.859191503657
 21
-1380.077464308344
 31
0.0
 11
1692.287179967853
 21
-1379.871121064166
 31
0.0
 11
1692.491247069479
 21
-1379.763173707064
 31
0.0
 11
1692.720743144063
 21
-1379.633523108446
 31
0.0
 11
1692.924638560565
 21
-1379.510072608103
 31
0.0
 11
1693.146319809471
 21
-1379.365491788818
 31
0.0
 11
1693.348981864927
 21
-1379.22179101919
 31
0.0
 11
1693.554818117795
 21
-1379.061289737296
 31
0.0
 11
1693.770839566695
 21
-1378.870833997249
 31
0.0
 11
1693.932556240129
 21
-1378.705986467614
 31
0.0
 11
1694.15553724281
 21
-1378.419615675834
 31
0.0
 11
1694.289052557341
 21
-1378.164980755061
 31
0.0
 11
1694.349597096959
 21
-1377.963591020809
 31
0.0
 11
1694.369372224218
 21
-1377.765986773561
 31
0.0
  0
SPLINE
  5
381
330
1F
100
AcDbEntity
  8
0
  6
Continuous
 62
     7
100
AcDbSpline
210
0.0
220
0.0
230
1.0
 70
     8
 71
     3
 72
    48
 73
    44
 74
    42
 42
0.000000001
 43
0.0000000001
 44
0.00000001
 40
0.0
 40
0.0
 40
0.0
 40
0.0
 40
0.0004018301768068
 40
0.0009055651332653
 40
0.0029208801184624
 40
0.0061978381000755
 40
0.0107771740520539
 40
0.0166681256263489
 40
0.0238711753484668
 40
0.032383456269509
 40
0.0422005509808948
 40
0.053317227494326
 40
0.0657277853524596
 40
0.0794262357569274
 40
0.0944064027942322
 40
0.1106619838730881
 40
0.1281865876019793
 40
0.1469737585239878
 40
0.1670169938033199
 40
0.1883097548272437
 40
0.2108454754738857
 40
0.2346175681223661
 40
0.2596194281245451
 40
0.287409059970102
 40
0.3164557420112885
 40
0.3467380755653756
 40
0.3782346513891904
 40
0.410924051547284
 40
0.4447848508918648
 40
0.4797956182471645
 40
0.5159349173606663
 40
0.5531813076876742
 40
0.5915133450257836
 40
0.630909582047235
 40
0.6713485687455101
 40
0.7128088527991556
 40
0.7552689798928569
 40
0.7987074939817843
 40
0.8431029375233473
 40
0.8884338516718013
 40
0.9346787764475469
 40
0.9534875108062479
 40
0.9722872096930939
 40
0.9722872096930939
 40
0.9722872096930939
 40
0.9722872096930939
 10
1669.614823347187
 20
-1306.7986135358
 30
0.0
 10
1669.614945488654
 20
-1306.798551411586
 30
0.0
 10
1669.615220741169
 20
-1306.798411394
 30
0.0
 10
1669.616222212056
 20
-1306.798579296656
 30
0.0
 10
1669.617927069255
 20
-1306.799496940582
 30
0.0
 10
1669.620618024179
 20
-1306.80140220993
 30
0.0
 10
1669.624157635292
 20
-1306.804314253458
 30
0.0
 10
1669.628559943609
 20
-1306.808230712886
 30
0.0
 10
1669.633811984519
 20
-1306.813159538395
 30
0.0
 10
1669.639910790234
 20
-1306.81909624879
 30
0.0
 10
1669.646850143457
 20
-1306.826038213478
 30
0.0
 10
1669.654625311607
 20
-1306.833981044279
 30
0.0
 10
1669.663231282691
 20
-1306.842920423919
 30
0.0
 10
1669.672663269664
 20
-1306.852851744502
 30
0.0
 10
1669.682916497901
 20
-1306.863770341495
 30
0.0
 10
1669.69398624315
 20
-1306.875671479753
 30
0.0
 10
1669.705867801751
 20
-1306.888550390934
 30
0.0
 10
1669.718556488476
 20
-1306.902402281178
 30
0.0
 10
1669.732047629859
 20
-1306.917222340424
 30
0.0
 10
1669.746336561361
 20
-1306.933005746932
 30
0.0
 10
1669.76141862478
 20
-1306.949747670801
 30
0.0
 10
1669.77728916721
 20
-1306.967443275775
 30
0.0
 10
1669.794290979943
 20
-1306.986476681456
 30
0.0
 10
1669.812425852745
 20
-1307.006855406343
 30
0.0
 10
1669.83169275875
 20
-1307.028582866657
 30
0.0
 10
1669.851743124669
 20
-1307.051267026544
 30
0.0
 10
1669.872562841992
 20
-1307.074891688312
 30
0.0
 10
1669.894137803377
 20
-1307.099440653041
 30
0.0
 10
1669.916453903116
 20
-1307.124897720004
 30
0.0
 10
1669.93949703663
 20
-1307.151246687265
 30
0.0
 10
1669.963253100306
 20
-1307.178471351843
 30
0.0
 10
1669.987707991327
 20
-1307.206555509929
 30
0.0
 10
1670.012847607517
 20
-1307.235482957029
 30
0.0
 10
1670.038657847281
 20
-1307.265237488059
 30
0.0
 10
1670.065124609365
 20
-1307.295802897561
 30
0.0
 10
1670.092233793357
 20
-1307.327162979291
 30
0.0
 10
1670.119971297414
 20
-1307.359301528176
 30
0.0
 10
1670.148323026772
 20
-1307.392202333033
 30
0.0
 10
1670.177274860692
 20
-1307.425849204945
 30
0.0
 10
1670.206812779666
 20
-1307.460225868016
 30
0.0
 10
1670.230773240384
 20
-1307.488150016832
 30
0.0
 10
1670.248965465116
 20
-1307.509370479877
 30
0.0
 10
1670.25712163094
 20
-1307.518890557492
 30
0.0
 10
1670.261198738372
 20
-1307.523649449024
 30
0.0
 11
1669.614823347187
 21
-1306.7986135358
 31
0.0
 11
1669.615196706172
 21
-1306.798464979363
 31
0.0
 11
1669.615699036123
 21
-1306.798502573287
 31
0.0
 11
1669.617539428883
 21
-1306.79932381884
 31
0.0
 11
1669.620242338021
 21
-1306.801176582215
 31
0.0
 11
1669.623803129473
 21
-1306.804056005628
 31
0.0
 11
1669.628217169177
 21
-1306.807957231292
 31
0.0
 11
1669.633479823069
 21
-1306.812875401423
 31
0.0
 11
1669.639586457084
 21
-1306.818805658236
 31
0.0
 11
1669.64653243716
 21
-1306.825743143946
 31
0.0
 11
1669.654313129232
 21
-1306.833683000767
 31
0.0
 11
1669.662923899237
 21
-1306.842620370915
 31
0.0
 11
1669.672360113112
 21
-1306.852550396605
 31
0.0
 11
1669.682617136792
 21
-1306.863468220051
 31
0.0
 11
1669.693690336215
 21
-1306.875368983469
 31
0.0
 11
1669.705575077315
 21
-1306.888247829072
 31
0.0
 11
1669.718266726031
 21
-1306.902099899078
 31
0.0
 11
1669.731760648298
 21
-1306.9169203357
 31
0.0
 11
1669.746052210053
 21
-1306.932704281153
 31
0.0
 11
1669.761136777231
 21
-1306.949446877652
 31
0.0
 11
1669.77700971577
 21
-1306.967143267412
 31
0.0
 11
1669.793666391605
 21
-1306.985788592649
 31
0.0
 11
1669.812141355159
 21
-1307.006547671609
 31
0.0
 11
1669.831413791359
 21
-1307.028279743302
 31
0.0
 11
1669.851469602101
 21
-1307.050968599169
 31
0.0
 11
1669.872294689278
 21
-1307.074598030653
 31
0.0
 11
1669.893874954785
 21
-1307.099151829197
 31
0.0
 11
1669.916196300517
 21
-1307.124613786243
 31
0.0
 11
1669.939244628369
 21
-1307.150967693234
 31
0.0
 11
1669.963005840235
 21
-1307.178197341612
 31
0.0
 11
1669.987465838009
 21
-1307.20628652282
 31
0.0
 11
1670.012610523587
 21
-1307.235219028301
 31
0.0
 11
1670.038425798862
 21
-1307.264978649496
 31
0.0
 11
1670.06489756573
 21
-1307.29554917785
 31
0.0
 11
1670.092011726084
 21
-1307.326914404804
 31
0.0
 11
1670.11975418182
 21
-1307.3590581218
 31
0.0
 11
1670.148110834831
 21
-1307.391964120281
 31
0.0
 11
1670.177067587014
 21
-1307.425616191691
 31
0.0
 11
1670.206610340262
 21
-1307.45999812747
 31
0.0
 11
1670.236724996469
 21
-1307.495093719063
 31
0.0
 11
1670.248966650477
 21
-1307.509373438794
 31
0.0
 11
1670.261198738372
 21
-1307.523649449024
 31
0.0
  0
SPLINE
  5
382
330
1F
100
AcDbEntity
  8
0
  6
Continuous
 62
     7
100
AcDbSpline
210
0.0
220
0.0
230
1.0
 70
     8
 71
     3
 72
    33
 73
    29
 74
    27
 42
0.000000001
 43
0.0000000001
 44
0.00000001
 40
0.0
 40
0.0
 40
0.0
 40
0.0
 40
0.0193702882792121
 40
0.0396701445479268
 40
0.0606445603677139
 40
0.0819713774678729
 40
0.0926519276047866
 40
0.1032765220873471
 40
0.1137925652967153
 40
0.1241465418040555
 40
0.1342849522510749
 40
0.1441552678745332
 40
0.1537067832314621
 40
0.1628917455698944
 40
0.1716660067640879
 40
0.1799902000763919
 40
0.1878301071644876
 40
0.1951577649139317
 40
0.2019515330611032
 40
0.2081970714616427
 40
0.2138872017087841
 40
0.219022815397755
 40
0.2243229803427843
 40
0.2289112846374898
 40
0.2328357631476843
 40
0.2361672092307003
 40
0.2400959240473198
 40
0.2434176656048102
 40
0.2434176656048102
 40
0.2434176656048102
 40
0.2434176656048102
 10
1669.062306934017
 20
-1309.355406342769
 30
0.0
 10
1669.057246235068
 20
-1309.359416551531
 30
0.0
 10
1669.046881972453
 20
-1309.367629410267
 30
0.0
 10
1669.031360656391
 20
-1309.380583768761
 30
0.0
 10
1669.015600925065
 20
-1309.394262683674
 30
0.0
 10
1669.002521009123
 20
-1309.406131762249
 30
0.0
 10
1668.992165695188
 20
-1309.415864070877
 30
0.0
 10
1668.984525480165
 20
-1309.423222267033
 30
0.0
 10
1668.977057667305
 20
-1309.430601313128
 30
0.0
 10
1668.969803558512
 20
-1309.437964780728
 30
0.0
 10
1668.962804579807
 20
-1309.44527602941
 30
0.0
 10
1668.956099704362
 20
-1309.452497006011
 30
0.0
 10
1668.949726800573
 20
-1309.459590841953
 30
0.0
 10
1668.943719739176
 20
-1309.46652036175
 30
0.0
 10
1668.938110160846
 20
-1309.473250939761
 30
0.0
 10
1668.932924398803
 20
-1309.479748774665
 30
0.0
 10
1668.928185736808
 20
-1309.485983827969
 30
0.0
 10
1668.923911240367
 20
-1309.491927873261
 30
0.0
 10
1668.920114521715
 20
-1309.49755736501
 30
0.0
 10
1668.91680261873
 20
-1309.502851266656
 30
0.0
 10
1668.91397898304
 20
-1309.507793889195
 30
0.0
 10
1668.911533635306
 20
-1309.512582916935
 30
0.0
 10
1668.909526004756
 20
-1309.517176689032
 30
0.0
 10
1668.908031686093
 20
-1309.521535703385
 30
0.0
 10
1668.907139245297
 20
-1309.525398705284
 30
0.0
 10
1668.906822777673
 20
-1309.529106067605
 30
0.0
 10
1668.907169717773
 20
-1309.532727836167
 30
0.0
 10
1668.908492107309
 20
-1309.534785051791
 30
0.0
 10
1668.909097943975
 20
-1309.535727552861
 30
0.0
 11
1669.062306934017
 21
-1309.355406342769
 31
0.0
 11
1669.047175177807
 21
-1309.367499220645
 31
0.0
 11
1669.031575151826
 21
-1309.380488576312
 31
0.0
 11
1669.015740327828
 21
-1309.394243010841
 31
0.0
 11
1668.999949206832
 21
-1309.40857736206
 31
0.0
 11
1668.992167115648
 21
-1309.415892634285
 31
0.0
 11
1668.98451536255
 21
-1309.423263704902
 31
0.0
 11
1668.977036067941
 21
-1309.430656087226
 31
0.0
 11
1668.96977106984
 21
-1309.438033392392
 31
0.0
 11
1668.962761755059
 21
-1309.445358477511
 31
0.0
 11
1668.956047693388
 21
-1309.452593427794
 31
0.0
 11
1668.949666685622
 21
-1309.459700760952
 31
0.0
 11
1668.943653214828
 21
-1309.466643505451
 31
0.0
 11
1668.938038803739
 21
-1309.473386356964
 31
0.0
 11
1668.932850399591
 21
-1309.479895785164
 31
0.0
 11
1668.928111102548
 21
-1309.486141039791
 31
0.0
 11
1668.923838597678
 21
-1309.492094212791
 31
0.0
 11
1668.9200462674
 21
-1309.497731012868
 31
0.0
 11
1668.916741757795
 21
-1309.503030726487
 31
0.0
 11
1668.91392843285
 21
-1309.507976713051
 31
0.0
 11
1668.91160412338
 21
-1309.512556244838
 31
0.0
 11
1668.909503175971
 21
-1309.517422225249
 31
0.0
 11
1668.908041082135
 21
-1309.521771341772
 31
0.0
 11
1668.907194446723
 21
-1309.525603408616
 31
0.0
 11
1668.906933060201
 21
-1309.52892458398
 31
0.0
 11
1668.907508097177
 21
-1309.532810985913
 31
0.0
 11
1668.909097943975
 21
-1309.535727552861
 31
0.0
  0
SPLINE
  5
383
330
1F
100
AcDbEntity
  8
0
  6
Continuous
 62
     7
100
AcDbSpline
210
0.0
220
0.0
230
1.0
 70
     8
 71
     3
 72
    25
 73
    21
 74
    19
 42
0.000000001
 43
0.0000000001
 44
0.00000001
 40
0.0
 40
0.0
 40
0.0
 40
0.0
 40
0.0024451176614632
 40
0.0051441584925998
 40
0.0077919308277805
 40
0.0108417104075266
 40
0.0143557153445679
 40
0.0183766367536947
 40
0.0258460829790143
 40
0.0347007857381507
 40
0.0449261575694827
 40
0.0564539303518358
 40
0.0691734240598385
 40
0.0829365596887245
 40
0.0975688069086674
 40
0.1128766966643241
 40
0.1286582038426169
 40
0.1447115106776997
 40
0.1608425449381667
 40
0.1768726306007692
 40
0.1768726306007692
 40
0.1768726306007692
 40
0.1768726306007692
 10
1670.824209086156
 20
-1307.928758569622
 30
0.0
 10
1670.823626651172
 20
-1307.928180197584
 30
0.0
 10
1670.822401305237
 20
-1307.926963379693
 30
0.0
 10
1670.819979534223
 20
-1307.925893835963
 30
0.0
 10
1670.81724775963
 20
-1307.925264161079
 30
0.0
 10
1670.814171626838
 20
-1307.925054593241
 30
0.0
 10
1670.810642641307
 20
-1307.925235026875
 30
0.0
 10
1670.805688107984
 20
-1307.925962630957
 30
0.0
 10
1670.79909766637
 20
-1307.927615383933
 30
0.0
 10
1670.790718315747
 20
-1307.930484086501
 30
0.0
 10
1670.781294625666
 20
-1307.934408966674
 30
0.0
 10
1670.7709191279
 20
-1307.939356356143
 30
0.0
 10
1670.759715558973
 20
-1307.945279904515
 30
0.0
 10
1670.747823608335
 20
-1307.952096742086
 30
0.0
 10
1670.735403275471
 20
-1307.959713077427
 30
0.0
 10
1670.722617565605
 20
-1307.968010311507
 30
0.0
 10
1670.709633911348
 20
-1307.976864859844
 30
0.0
 10
1670.696615076958
 20
-1307.986147805113
 30
0.0
 10
1670.683697048413
 20
-1307.995711220323
 30
0.0
 10
1670.675223665962
 20
-1308.002278852016
 30
0.0
 10
1670.671000270616
 20
-1308.005552357352
 30
0.0
 11
1670.824209086156
 21
-1307.928758569622
 31
0.0
 11
1670.822377400913
 21
-1307.927138833976
 31
0.0
 11
1670.819943785
 21
-1307.925971648038
 31
0.0
 11
1670.817367962161
 21
-1307.925358597568
 31
0.0
 11
1670.81432740895
 21
-1307.925121557045
 31
0.0
 11
1670.810816885376
 21
-1307.925277928084
 31
0.0
 11
1670.806835652918
 21
-1307.925841483215
 31
0.0
 11
1670.799574831736
 21
-1307.927594508248
 31
0.0
 11
1670.791182665426
 21
-1307.93041891979
 31
0.0
 11
1670.78172881031
 21
-1307.934315437246
 31
0.0
 11
1670.771311937269
 21
-1307.93925287563
 31
0.0
 11
1670.760056848037
 21
-1307.945178116856
 31
0.0
 11
1670.748108608006
 21
-1307.952009182664
 31
0.0
 11
1670.735627856856
 21
-1307.959646820224
 31
0.0
 11
1670.722781893793
 21
-1307.967972246361
 31
0.0
 11
1670.709740003146
 21
-1307.97685847483
 31
0.0
 11
1670.696664116933
 21
-1307.986171361622
 31
0.0
 11
1670.68370609976
 21
-1307.995778653691
 31
0.0
 11
1670.671000270616
 21
-1308.005552357352
 31
0.0
  0
SPLINE
  5
384
330
1F
100
AcDbEntity
  8
0
  6
Continuous
 62
     7
100
AcDbSpline
210
0.0
220
0.0
230
1.0
 70
     8
 71
     3
 72
    11
 73
     7
 74
     5
 42
0.000000001
 43
0.0000000001
 44
0.00000001
 40
0.0
 40
0.0
 40
0.0
 40
0.0
 40
0.1361167825937751
 40
0.2785832527444725
 40
0.4128109399346329
 40
0.573794030379506
 40
0.573794030379506
 40
0.573794030379506
 40
0.573794030379506
 10
1670.299431011322
 20
-1307.568316759566
 30
0.0
 10
1670.328904701359
 20
-1307.602812333404
 30
0.0
 10
1670.389226982819
 20
-1307.673412668807
 30
0.0
 10
1670.478398637182
 20
-1307.778213437562
 30
0.0
 10
1670.57280832456
 20
-1307.889440335417
 30
0.0
 10
1670.636349999564
 20
-1307.964578387908
 30
0.0
 10
1670.671000270616
 20
-1308.005552357352
 30
0.0
 11
1670.299431011322
 21
-1307.568316759566
 31
0.0
 11
1670.387817397459
 21
-1307.671833063847
 31
0.0
 11
1670.480155960558
 21
-1307.780324007649
 31
0.0
 11
1670.567008679655
 21
-1307.882664992583
 31
0.0
 11
1670.671000270616
 21
-1308.005552357352
 31
0.0
  0
SPLINE
  5
385
330
1F
100
AcDbEntity
  8
0
  6
Continuous
 62
     7
100
AcDbSpline
210
0.0
220
0.0
230
1.0
 70
     8
 71
     3
 72
    28
 73
    24
 74
    22
 42
0.000000001
 43
0.0000000001
 44
0.00000001
 40
0.0
 40
0.0
 40
0.0
 40
0.0
 40
0.1872244737832247
 40
0.3732484450205474
 40
0.4476716116499938
 40
0.5288764717484934
 40
0.6156227320932925
 40
0.706670154534329
 40
0.8007785713677177
 40
0.8814628587765614
 40
0.9691656619023821
 40
1.06119162883637
 40
1.154845696666011
 40
1.239422453030254
 40
1.328308663616977
 40
1.414991870086419
 40
1.456177225216207
 40
1.496939513182316
 40
1.53464062955996
 40
1.566647763570945
 40
1.587487553958493
 40
1.600050650018185
 40
1.604696240992268
 40
1.604696240992268
 40
1.604696240992268
 40
1.604696240992268
 10
1669.062306934017
 20
-1309.355406342769
 30
0.0
 10
1669.0220047856
 20
-1309.30775640204
 30
0.0
 10
1668.941658921138
 20
-1309.212762047705
 30
0.0
 10
1668.845034544324
 20
-1309.099045135305
 30
0.0
 10
1668.771182167848
 20
-1309.012353771261
 30
0.0
 10
1668.718734283398
 20
-1308.950900726284
 30
0.0
 10
1668.662622354648
 20
-1308.885289638096
 30
0.0
 10
1668.603633984927
 20
-1308.816478995543
 30
0.0
 10
1668.545869953773
 20
-1308.749280388941
 30
0.0
 10
1668.488737303539
 20
-1308.683009330117
 30
0.0
 10
1668.43195505276
 20
-1308.617352810937
 30
0.0
 10
1668.372210877255
 20
-1308.548542263726
 30
0.0
 10
1668.312984253368
 20
-1308.480662735023
 30
0.0
 10
1668.254246876261
 20
-1308.41374536685
 30
0.0
 10
1668.196792643736
 20
-1308.348795638512
 30
0.0
 10
1668.148627228608
 20
-1308.294936113042
 30
0.0
 10
1668.110859858728
 20
-1308.25331015998
 30
0.0
 10
1668.083897592729
 20
-1308.22390297592
 30
0.0
 10
1668.058670806851
 20
-1308.197135728514
 30
0.0
 10
1668.037868671295
 20
-1308.175102483193
 30
0.0
 10
1668.021946889111
 20
-1308.160516225183
 30
0.0
 10
1668.013041310985
 20
-1308.150934670417
 30
0.0
 10
1668.007599157263
 20
-1308.148991966631
 30
0.0
 10
1668.006130016684
 20
-1308.148467516102
 30
0.0
 11
1669.062306934017
 21
-1309.355406342769
 31
0.0
 11
1668.94134634917
 21
-1309.212502390766
 31
0.0
 11
1668.820903710473
 21
-1309.070733252161
 31
0.0
 11
1668.772639941322
 21
-1309.014081541521
 31
0.0
 11
1668.719923283772
 21
-1308.952314371276
 31
0.0
 11
1668.663541602716
 21
-1308.88639002278
 31
0.0
 11
1668.604282763047
 21
-1308.817266777388
 31
0.0
 11
1668.542934629655
 21
-1308.745902916455
 31
0.0
 11
1668.490249622347
 21
-1308.684794453548
 31
0.0
 11
1668.432876737391
 21
-1308.618460949595
 31
0.0
 11
1668.37253872342
 21
-1308.548976399813
 31
0.0
 11
1668.310958329068
 21
-1308.47841479942
 31
0.0
 11
1668.255154910303
 21
-1308.414860050042
 31
0.0
 11
1668.196244989975
 21
-1308.348298952432
 31
0.0
 11
1668.138414049946
 21
-1308.283726817169
 31
0.0
 11
1668.110736528952
 21
-1308.253227828557
 31
0.0
 11
1668.083143974534
 21
-1308.223224244483
 31
0.0
 11
1668.057342433178
 21
-1308.195735071442
 31
0.0
 11
1668.035037951372
 21
-1308.172779315928
 31
0.0
 11
1668.020053860776
 21
-1308.15829574302
 31
0.0
 11
1668.010434368255
 21
-1308.150215102949
 31
0.0
 11
1668.006130016684
 21
-1308.148467516102
 31
0.0
  0
SPLINE
  5
386
330
1F
100
AcDbEntity
  8
0
  6
Continuous
 62
     7
100
AcDbSpline
210
0.0
220
0.0
230
1.0
 70
     8
 71
     3
 72
    15
 73
    11
 74
     9
 42
0.000000001
 43
0.0000000001
 44
0.00000001
 40
0.0
 40
0.0
 40
0.0
 40
0.0
 40
0.0638716638918893
 40
0.1390570399811202
 40
0.2030800112256128
 40
0.2783515778462899
 40
0.342767763745139
 40
0.4181069956745645
 40
0.4882914499254899
 40
0.5583213708137836
 40
0.5583213708137836
 40
0.5583213708137836
 40
0.5583213708137836
 10
1674.853120784609
 20
-1313.28078583487
 30
0.0
 10
1674.852624361667
 20
-1313.259490342948
 30
0.0
 10
1674.851543567926
 20
-1313.213127247773
 30
0.0
 10
1674.842624626726
 20
-1313.145873162337
 30
0.0
 10
1674.827519824321
 20
-1313.075939550876
 30
0.0
 10
1674.807327414549
 20
-1313.010990512679
 30
0.0
 10
1674.780185549485
 20
-1312.94456979409
 30
0.0
 10
1674.748011147663
 20
-1312.88232601673
 30
0.0
 10
1674.709661745255
 20
-1312.821402665213
 30
0.0
 10
1674.680515919275
 20
-1312.784826789065
 30
0.0
 10
1674.665959061619
 20
-1312.766559010977
 30
0.0
 11
1674.853120784609
 21
-1313.28078583487
 31
0.0
 11
1674.850571075676
 21
-1313.216965081959
 31
0.0
 11
1674.841058035188
 21
-1313.142383965105
 31
0.0
 11
1674.827467548143
 21
-1313.079820080891
 31
0.0
 11
1674.805152117569
 21
-1313.00793245724
 31
0.0
 11
1674.780761785128
 21
-1312.948312353387
 31
0.0
 11
1674.746259481941
 21
-1312.881337797952
 31
0.0
 11
1674.70858191513
 21
-1312.822124128109
 31
0.0
 11
1674.665959061619
 21
-1312.766559010977
 31
0.0
  0
SPLINE
  5
387
330
1F
100
AcDbEntity
  8
0
  6
Continuous
 62
     7
100
AcDbSpline
210
0.0
220
0.0
230
1.0
 70
     8
 71
     3
 72
    25
 73
    21
 74
    19
 42
0.000000001
 43
0.0000000001
 44
0.00000001
 40
0.0
 40
0.0
 40
0.0
 40
0.0
 40
0.0024450042375327
 40
0.0051440032412605
 40
0.007791575521255
 40
0.0108411633766234
 40
0.0143549731401441
 40
0.0183756867365874
 40
0.0258450246535944
 40
0.0346996457159308
 40
0.0449249547016782
 40
0.0564526781399741
 40
0.069172132320948
 40
0.0829352357166937
 40
0.0975674563191165
 40
0.1128753240257439
 40
0.1286568131575616
 40
0.1447101057414175
 40
0.1608411296106903
 40
0.1768712090053427
 40
0.1768712090053427
 40
0.1768712090053427
 40
0.1768712090053427
 10
1674.819165166136
 20
-1312.689761830193
 30
0.0
 10
1674.818582747353
 20
-1312.689183493589
 30
0.0
 10
1674.817357415643
 20
-1312.687966730522
 30
0.0
 10
1674.814935671952
 20
-1312.686897393129
 30
0.0
 10
1674.812204002315
 20
-1312.686267927369
 30
0.0
 10
1674.80912805443
 20
-1312.686058541999
 30
0.0
 10
1674.805599276777
 20
-1312.686239124726
 30
0.0
 10
1674.800644940075
 20
-1312.686966887089
 30
0.0
 10
1674.794054678916
 20
-1312.688619807194
 30
0.0
 10
1674.785675480801
 20
-1312.691488692096
 30
0.0
 10
1674.776251934634
 20
-1312.695413748031
 30
0.0
 10
1674.765876575915
 20
-1312.700361310789
 30
0.0
 10
1674.75467314498
 20
-1312.706285033367
 30
0.0
 10
1674.742781334818
 20
-1312.713102049909
 30
0.0
 10
1674.730361148342
 20
-1312.720718572388
 30
0.0
 10
1674.717575593719
 20
-1312.729016004939
 30
0.0
 10
1674.704592106267
 20
-1312.737870765911
 30
0.0
 10
1674.691573452791
 20
-1312.747153940545
 30
0.0
 10
1674.678655619021
 20
-1312.756717601943
 30
0.0
 10
1674.670182384012
 20
-1312.763285414885
 30
0.0
 10
1674.665959061619
 20
-1312.766559010977
 30
0.0
 11
1674.819165166136
 21
-1312.689761830193
 31
0.0
 11
1674.817333527525
 21
-1312.688142213038
 31
0.0
 11
1674.814899881393
 21
-1312.68697518684
 31
0.0
 11
1674.812324213967
 21
-1312.686362347443
 31
0.0
 11
1674.809283838892
 21
-1312.686125488737
 31
0.0
 11
1674.80577351742
 21
-1312.686282010898
 31
0.0
 11
1674.801792511771
 21
-1312.686845685573
 31
0.0
 11
1674.794531849589
 21
-1312.68859890766
 31
0.0
 11
1674.786139832385
 21
-1312.691423506107
 31
0.0
 11
1674.77668611941
 21
-1312.695320203503
 31
0.0
 11
1674.766269384747
 21
-1312.700257818621
 31
0.0
 11
1674.755014433471
 21
-1312.70618323704
 31
0.0
 11
1674.743066334318
 21
-1312.713014484312
 31
0.0
 11
1674.730585730224
 21
-1312.720652311181
 31
0.0
 11
1674.71773992332
 21
-1312.728977937723
 31
0.0
 11
1674.704698200615
 21
-1312.737864380619
 31
0.0
 11
1674.691622496217
 21
-1312.747177498119
 31
0.0
 11
1674.678664676528
 21
-1312.756785039096
 31
0.0
 11
1674.665959061619
 21
-1312.766559010977
 31
0.0
  0
SPLINE
  5
388
330
1F
100
AcDbEntity
  8
0
  6
Continuous
 62
     7
100
AcDbSpline
210
0.0
220
0.0
230
1.0
 70
     8
 71
     3
 72
    33
 73
    29
 74
    27
 42
0.000000001
 43
0.0000000001
 44
0.00000001
 40
0.0
 40
0.0
 40
0.0
 40
0.0
 40
0.0193702923086009
 40
0.0396701501234031
 40
0.0606445674119672
 40
0.0819713863405268
 40
0.0926519375065413
 40
0.103276533083251
 40
0.1137925774416493
 40
0.1241465551452805
 40
0.1342849668368709
 40
0.1441552837108974
 40
0.1537068003516991
 40
0.1628917639891281
 40
0.1716660264904858
 40
0.1799902211165043
 40
0.1878301295244419
 40
0.195157788600079
 40
0.2019515580840478
 40
0.2081970978434642
 40
0.2138872294841535
 40
0.219022844623744
 40
0.2243230127683533
 40
0.228911320047383
 40
0.2328358014560814
 40
0.2361672505330829
 40
0.2400959678184514
 40
0.2434177135251667
 40
0.2434177135251667
 40
0.2434177135251667
 40
0.2434177135251667
 10
1672.004463019014
 20
-1312.861731384288
 30
0.0
 10
1671.999402320437
 20
-1312.86574159568
 30
0.0
 10
1671.989038059283
 20
-1312.873954459248
 30
0.0
 10
1671.973516745028
 20
-1312.886908823554
 30
0.0
 10
1671.957757015744
 20
-1312.900587743276
 30
0.0
 10
1671.944677101093
 20
-1312.912456825412
 30
0.0
 10
1671.934321787904
 20
-1312.922189136756
 30
0.0
 10
1671.926681573286
 20
-1312.929547334904
 30
0.0
 10
1671.919213760715
 20
-1312.936926382923
 30
0.0
 10
1671.911959652116
 20
-1312.944289852392
 30
0.0
 10
1671.904960673533
 20
-1312.951601102895
 30
0.0
 10
1671.898255798154
 20
-1312.958822081275
 30
0.0
 10
1671.891882894401
 20
-1312.965915918967
 30
0.0
 10
1671.885875833023
 20
-1312.972845440498
 30
0.0
 10
1671.880266254728
 20
-1312.979576020239
 30
0.0
 10
1671.875080492752
 20
-1312.986073856877
 30
0.0
 10
1671.870341830881
 20
-1312.992308911935
 30
0.0
 10
1671.866067334634
 20
-1312.998252959004
 30
0.0
 10
1671.86227061628
 20
-1313.003882452573
 30
0.0
 10
1671.858958713701
 20
-1313.009176356083
 30
0.0
 10
1671.856135078552
 20
-1313.01411898055
 30
0.0
 10
1671.853689731314
 20
-1313.018908010811
 30
0.0
 10
1671.851682101405
 20
-1313.023501785979
 30
0.0
 10
1671.85018778379
 20
-1313.02786080392
 30
0.0
 10
1671.849295344665
 20
-1313.031723809253
 30
0.0
 10
1671.848978879531
 20
-1313.035431174682
 30
0.0
 10
1671.849325823348
 20
-1313.039052945952
 30
0.0
 10
1671.850648214682
 20
-1313.041110162985
 30
0.0
 10
1671.851254052374
 20
-1313.042052665018
 30
0.0
 11
1672.004463019014
 21
-1312.861731384288
 31
0.0
 11
1671.989331263801
 21
-1312.873824269866
 31
0.0
 11
1671.973731240332
 21
-1312.886813630966
 31
0.0
 11
1671.957896418504
 21
-1312.900568070233
 31
0.0
 11
1671.94210529902
 21
-1312.914902425838
 31
0.0
 11
1671.93432320837
 21
-1312.922217700133
 31
0.0
 11
1671.926671455677
 21
-1312.929588772748
 31
0.0
 11
1671.919192161361
 21
-1312.936981157004
 31
0.0
 11
1671.911927163458
 21
-1312.944358464043
 31
0.0
 11
1671.904917848792
 21
-1312.951683550995
 31
0.0
 11
1671.898203787199
 21
-1312.958918503056
 31
0.0
 11
1671.89182277947
 21
-1312.966025837972
 31
0.0
 11
1671.885809308701
 21
-1312.972968584212
 31
0.0
 11
1671.880194897651
 21
-1312.979711437459
 31
0.0
 11
1671.875006493578
 21
-1312.986220867398
 31
0.0
 11
1671.870267196666
 21
-1312.992466123782
 31
0.0
 11
1671.865994692004
 21
-1312.998419298563
 31
0.0
 11
1671.862202362035
 21
-1313.004056100459
 31
0.0
 11
1671.858897852853
 21
-1313.009355815943
 31
0.0
 11
1671.856084528466
 21
-1313.014301804428
 31
0.0
 11
1671.853760219702
 21
-1313.0188813382
 31
0.0
 11
1671.851659272817
 21
-1313.023747322322
 31
0.0
 11
1671.850197180095
 21
-1313.028096442368
 31
0.0
 11
1671.84935054638
 21
-1313.031928512555
 31
0.0
 11
1671.849089162116
 21
-1313.0352496911
 31
0.0
 11
1671.849664202491
 21
-1313.039136095026
 31
0.0
 11
1671.851254052374
 21
-1313.042052665018
 31
0.0
  0
SPLINE
  5
389
330
1F
100
AcDbEntity
  8
0
  6
Continuous
 62
     7
100
AcDbSpline
210
0.0
220
0.0
230
1.0
 70
     8
 71
     3
 72
    11
 73
     7
 74
     5
 42
0.000000001
 43
0.0000000001
 44
0.00000001
 40
0.0
 40
0.0
 40
0.0
 40
0.0
 40
0.2512954232142073
 40
0.5467016687283057
 40
0.8020559862109917
 40
1.096331966863397
 40
1.096331966863397
 40
1.096331966863397
 40
1.096331966863397
 10
1672.553120723017
 20
-1313.805098394704
 30
0.0
 10
1672.522180090301
 20
-1313.727205907182
 30
0.0
 10
1672.454867685733
 20
-1313.55774817962
 30
0.0
 10
1672.329672514121
 20
-1313.320966766564
 30
0.0
 10
1672.179739858206
 20
-1313.082042708897
 30
0.0
 10
1672.065583274207
 20
-1312.93855547031
 30
0.0
 10
1672.004463019014
 20
-1312.861731384288
 30
0.0
 11
1672.553120723017
 21
-1313.805098394704
 31
0.0
 11
1672.456490665822
 21
-1313.573124210774
 31
0.0
 11
1672.320040357641
 21
-1313.311120081273
 31
0.0
 11
1672.183054577042
 21
-1313.095618982069
 31
0.0
 11
1672.004463019014
 21
-1312.861731384288
 31
0.0
  0
SPLINE
  5
38A
330
1F
100
AcDbEntity
  8
0
  6
Continuous
 62
     7
100
AcDbSpline
210
0.0
220
0.0
230
1.0
 70
     8
 71
     3
 72
    31
 73
    27
 74
    25
 42
0.000000001
 43
0.0000000001
 44
0.00000001
 40
0.0
 40
0.0
 40
0.0
 40
0.0
 40
0.0030689052554579
 40
0.0063567640319328
 40
0.010073487406394
 40
0.0142928048640504
 40
0.0191154415403673
 40
0.0246137186147941
 40
0.0291833759704544
 40
0.0341669926698296
 40
0.0395699129547305
 40
0.045391494278706
 40
0.0516258388008624
 40
0.0582618392717634
 40
0.0652838743873847
 40
0.0726718954832234
 40
0.0804021364183186
 40
0.088447313971021
 40
0.0967773470101041
 40
0.1053596890890608
 40
0.12314200244857
 40
0.1415080569250488
 40
0.160167075088253
 40
0.1788407110324545
 40
0.1972738319645756
 40
0.21524616950023
 40
0.21524616950023
 40
0.21524616950023
 40
0.21524616950023
 10
1675.053120723017
 20
-1313.33254943988
 30
0.0
 10
1675.053051201606
 20
-1313.331524493877
 30
0.0
 10
1675.052907210593
 20
-1313.329401475084
 30
0.0
 10
1675.051735195847
 20
-1313.326211595166
 30
0.0
 10
1675.049816481075
 20
-1313.322983618874
 30
0.0
 10
1675.047040053029
 20
-1313.319737134119
 30
0.0
 10
1675.04341706608
 20
-1313.3165017998
 30
0.0
 10
1675.039371492595
 20
-1313.31361169055
 30
0.0
 10
1675.035077670177
 20
-1313.311011447137
 30
0.0
 10
1675.030671484527
 20
-1313.308673885429
 30
0.0
 10
1675.025778060843
 20
-1313.30637960432
 30
0.0
 10
1675.020405923423
 20
-1313.304137588419
 30
0.0
 10
1675.014567373233
 20
-1313.301958410952
 30
0.0
 10
1675.008279259425
 20
-1313.299850787594
 30
0.0
 10
1675.001561848375
 20
-1313.297824652213
 30
0.0
 10
1674.994439557439
 20
-1313.295887833815
 30
0.0
 10
1674.986939802928
 20
-1313.294049031818
 30
0.0
 10
1674.979093397271
 20
-1313.292314695395
 30
0.0
 10
1674.97093344002
 20
-1313.290691810778
 30
0.0
 10
1674.959548012469
 20
-1313.288658792927
 30
0.0
 10
1674.944799319396
 20
-1313.286447495904
 30
0.0
 10
1674.92665176294
 20
-1313.284320314005
 30
0.0
 10
1674.908153758586
 20
-1313.282699676577
 30
0.0
 10
1674.889597183567
 20
-1313.281581162131
 30
0.0
 10
1674.871247112567
 20
-1313.280908018482
 30
0.0
 10
1674.859111694631
 20
-1313.280826219725
 30
0.0
 10
1674.853120784609
 20
-1313.28078583487
 30
0.0
 11
1675.053120723017
 21
-1313.33254943988
 31
0.0
 11
1675.052773342876
 21
-1313.329500253426
 31
0.0
 11
1675.051700815831
 21
-1313.32639225089
 31
0.0
 11
1675.04982116603
 21
-1313.323185860077
 31
0.0
 11
1675.047109195975
 21
-1313.319953546247
 31
0.0
 11
1675.043534664009
 21
-1313.316716179883
 31
0.0
 11
1675.039078389867
 21
-1313.313495517321
 31
0.0
 11
1675.035175355263
 21
-1313.311118946871
 31
0.0
 11
1675.030777534637
 21
-1313.308774675728
 31
0.0
 11
1675.025889389543
 21
-1313.306473027765
 31
0.0
 11
1675.020519839775
 21
-1313.304223862865
 31
0.0
 11
1675.014681499746
 21
-1313.302037350618
 31
0.0
 11
1675.008391379833
 21
-1313.299922902145
 31
0.0
 11
1675.001670056607
 21
-1313.297889975687
 31
0.0
 11
1674.994542103727
 21
-1313.295947003143
 31
0.0
 11
1674.987035217591
 21
-1313.294102203858
 31
0.0
 11
1674.979180378172
 21
-1313.292362554863
 31
0.0
 11
1674.971010971703
 21
-1313.290734596777
 31
0.0
 11
1674.962562709041
 21
-1313.289223486979
 31
0.0
 11
1674.944979594738
 21
-1313.286569290787
 31
0.0
 11
1674.926739710789
 21
-1313.28442020051
 31
0.0
 11
1674.908152534327
 21
-1313.282784404239
 31
0.0
 11
1674.889513388375
 21
-1313.281649979829
 31
0.0
 11
1674.871091890301
 21
-1313.280995485649
 31
0.0
 11
1674.853120784609
 21
-1313.28078583487
 31
0.0
  0
SPLINE
  5
38B
330
1F
100
AcDbEntity
  8
0
  6
Continuous
 62
     7
100
AcDbSpline
210
0.0
220
0.0
230
1.0
 70
     8
 71
     3
 72
    13
 73
     9
 74
     7
 42
0.000000001
 43
0.0000000001
 44
0.00000001
 40
0.0
 40
0.0
 40
0.0
 40
0.0
 40
0.140509462756229
 40
0.3066364939583139
 40
0.4720241059784008
 40
0.6553870526296798
 40
1.027063635160401
 40
1.423945520001751
 40
1.423945520001751
 40
1.423945520001751
 40
1.423945520001751
 10
1673.144717371697
 20
-1321.464456001862
 30
0.0
 10
1673.191553250657
 20
-1321.465621487572
 30
0.0
 10
1673.293764085961
 20
-1321.468164971116
 30
0.0
 10
1673.450437742229
 20
-1321.483843986108
 30
0.0
 10
1673.620699156447
 20
-1321.505364621574
 30
0.0
 10
1673.858199173263
 20
-1321.541059558099
 30
0.0
 10
1674.170960171592
 20
-1321.594669339596
 30
0.0
 10
1674.422978840887
 20
-1321.640690687193
 30
0.0
 10
1674.553120723017
 20
-1321.66445600191
 30
0.0
 11
1673.144717371697
 21
-1321.464456001862
 31
0.0
 11
1673.285134210208
 21
-1321.469557066889
 31
0.0
 11
1673.450580320247
 21
-1321.484582916281
 31
0.0
 11
1673.614675192433
 21
-1321.505221098456
 31
0.0
 11
1673.796051536792
 21
-1321.532139340716
 31
0.0
 11
1674.162562534567
 21
-1321.593890213556
 31
0.0
 11
1674.553120723017
 21
-1321.66445600191
 31
0.0
  0
SPLINE
  5
38C
330
1F
100
AcDbEntity
  8
0
  6
Continuous
 62
     7
100
AcDbSpline
210
0.0
220
0.0
230
1.0
 70
     8
 71
     3
 72
    25
 73
    21
 74
    19
 42
0.000000001
 43
0.0000000001
 44
0.00000001
 40
0.0
 40
0.0
 40
0.0
 40
0.0
 40
0.0554293322241771
 40
0.122842237955799
 40
0.1803970838867734
 40
0.2455664903116387
 40
0.380929691364899
 40
0.4896097780603096
 40
0.6245744264543133
 40
0.7319684400550251
 40
0.8437039152903363
 40
0.9700888027514877
 40
1.081362245922212
 40
1.204402631843394
 40
1.313938631947716
 40
1.432667469918037
 40
1.545630703510206
 40
1.656917208342948
 40
1.774647399314742
 40
1.873388815480197
 40
1.873388815480197
 40
1.873388815480197
 40
1.873388815480197
 10
1767.705137795906
 20
-1306.751822419122
 30
0.0
 10
1767.686661052962
 20
-1306.751936872265
 30
0.0
 10
1767.645712978123
 20
-1306.752190538466
 30
0.0
 10
1767.585608511766
 20
-1306.754318603242
 30
0.0
 10
1767.522330560186
 20
-1306.757967883501
 30
0.0
 10
1767.436579972947
 20
-1306.764979558958
 30
0.0
 10
1767.33419772483
 20
-1306.777331400478
 30
0.0
 10
1767.209601569093
 20
-1306.798426649821
 30
0.0
 10
1767.095245964214
 20
-1306.823512139855
 30
0.0
 10
1766.981298941698
 20
-1306.854430710033
 30
0.0
 10
1766.871592483569
 20
-1306.889623081379
 30
0.0
 10
1766.762574843889
 20
-1306.930771919448
 30
0.0
 10
1766.652416646047
 20
-1306.979066981083
 30
0.0
 10
1766.549990579937
 20
-1307.030649902893
 30
0.0
 10
1766.448413305564
 20
-1307.08902144411
 30
0.0
 10
1766.353084591914
 20
-1307.151191751588
 30
0.0
 10
1766.261142831919
 20
-1307.219266309968
 30
0.0
 10
1766.173851105367
 20
-1307.292659590984
 30
0.0
 10
1766.094494909885
 20
-1307.367937879183
 30
0.0
 10
1766.046317724297
 20
-1307.421683739375
 30
0.0
 10
1766.02434217532
 20
-1307.446199395052
 30
0.0
 11
1767.705137795906
 21
-1306.751822419122
 31
0.0
 11
1767.649711570608
 21
-1306.752409179658
 31
0.0
 11
1767.582337731679
 21
-1306.754703854831
 31
0.0
 11
1767.524879482267
 21
-1306.758036987478
 31
0.0
 11
1767.459926453767
 21
-1306.76334316601
 31
0.0
 11
1767.325540229315
 21
-1306.779577039168
 31
0.0
 11
1767.218386870469
 21
-1306.797729693405
 31
0.0
 11
1767.086562455069
 21
-1306.82667411929
 31
0.0
 11
1766.982921416232
 21
-1306.854816778095
 31
0.0
 11
1766.87653212505
 21
-1306.88896549987
 31
0.0
 11
1766.758304525881
 21
-1306.933635116893
 31
0.0
 11
1766.656407784007
 21
-1306.978343430155
 31
0.0
 11
1766.546536651189
 21
-1307.033726378343
 31
0.0
 11
1766.451585039535
 21
-1307.088337063973
 31
0.0
 11
1766.352161427502
 21
-1307.153233001259
 31
0.0
 11
1766.261422550931
 21
-1307.220517091534
 31
0.0
 11
1766.176206229042
 21
-1307.292091284287
 31
0.0
 11
1766.091149878242
 21
-1307.373490397087
 31
0.0
 11
1766.02434217532
 21
-1307.446199395052
 31
0.0
  0
SPLINE
  5
38D
330
1F
100
AcDbEntity
  8
0
  6
Continuous
 62
     7
100
AcDbSpline
210
0.0
220
0.0
230
1.0
 70
     8
 71
     3
 72
    23
 73
    19
 74
    17
 42
0.000000001
 43
0.0000000001
 44
0.00000001
 40
0.0
 40
0.0
 40
0.0
 40
0.0
 40
0.0987424541620828
 40
0.2164821107344849
 40
0.327773183210793
 40
0.4407411167583393
 40
0.6713700020407314
 40
0.9031439954412426
 40
1.029525091771022
 40
1.141269405807917
 40
1.248670428888375
 40
1.38363515163089
 40
1.492322574154199
 40
1.627684004148191
 40
1.692854980054795
 40
1.75041014757567
 40
1.817802185787444
 40
1.873214699069705
 40
1.873214699069705
 40
1.873214699069705
 40
1.873214699069705
 10
1788.440068559806
 20
-1307.446199395052
 30
0.0
 10
1788.418092739325
 20
-1307.42168347612
 30
0.0
 10
1788.369913127318
 20
-1307.367934995939
 30
0.0
 10
1788.290553623656
 20
-1307.292653732246
 30
0.0
 10
1788.203254251205
 20
-1307.219256249576
 30
0.0
 10
1788.081324108152
 20
-1307.12897501623
 30
0.0
 10
1787.917349169271
 20
-1307.028640328815
 30
0.0
 10
1787.739406612557
 20
-1306.944951699641
 30
0.0
 10
1787.592802893386
 20
-1306.88961784059
 30
0.0
 10
1787.483089698912
 20
-1306.854423979737
 30
0.0
 10
1787.369137893248
 20
-1306.823505559697
 30
0.0
 10
1787.254777076946
 20
-1306.798420322602
 30
0.0
 10
1787.13017883216
 20
-1306.777326447661
 30
0.0
 10
1787.027794035428
 20
-1306.764975763999
 30
0.0
 10
1786.942043311132
 20
-1306.757965294244
 30
0.0
 10
1786.878771621512
 20
-1306.754317285117
 30
0.0
 10
1786.818679587791
 20
-1306.752190314295
 30
0.0
 10
1786.777744075614
 20
-1306.751936806467
 30
0.0
 10
1786.759272939211
 20
-1306.751822424401
 30
0.0
 11
1788.440068559806
 21
-1307.446199395052
 31
0.0
 11
1788.373260131908
 21
-1307.373489653599
 31
0.0
 11
1788.288196671855
 21
-1307.292084279081
 31
0.0
 11
1788.202976347048
 21
-1307.220507750273
 31
0.0
 11
1788.112233076749
 21
-1307.153221694623
 31
0.0
 11
1787.91569351439
 21
-1307.032549061732
 31
0.0
 11
1787.706089460638
 21
-1306.933628258442
 31
0.0
 11
1787.58786509543
 21
-1306.888960808457
 31
0.0
 11
1787.481467120356
 21
-1306.854810220338
 31
0.0
 11
1787.377819009514
 21
-1306.82666685709
 31
0.0
 11
1787.245994172177
 21
-1306.797724006259
 31
0.0
 11
1787.138833338396
 21
-1306.779571556244
 31
0.0
 11
1787.004448641653
 21
-1306.763339804306
 31
0.0
 11
1786.939493974223
 21
-1306.758034412018
 31
0.0
 11
1786.882035355837
 21
-1306.75470208708
 31
0.0
 11
1786.814682348429
 21
-1306.752408824519
 31
0.0
 11
1786.759272939211
 21
-1306.751822424401
 31
0.0
  0
SPLINE
  5
38E
330
1F
100
AcDbEntity
  8
0
  6
Continuous
 62
     7
100
AcDbSpline
210
0.0
220
0.0
230
1.0
 70
     8
 71
     3
 72
    44
 73
    40
 74
    38
 42
0.000000001
 43
0.0000000001
 44
0.00000001
 40
0.0
 40
0.0
 40
0.0
 40
0.0
 40
0.0586718231182503
 40
0.11762910163552
 40
0.1765890806047406
 40
0.2352543641015363
 40
0.2933156351672985
 40
0.3662412207891937
 40
0.4401154817521298
 40
0.4561527713902808
 40
0.4738132260913529
 40
0.4931028839908226
 40
0.5140279147790585
 40
0.5365946210412168
 40
0.5608094387991421
 40
0.5866789375554632
 40
0.6830402606810398
 40
0.7808073603457684
 40
0.8798098952175126
 40
0.9100862202114901
 40
0.940188159281278
 40
0.9698035303068189
 40
0.9986200919062429
 40
1.026325557191372
 40
1.040796364532711
 40
1.055167331557127
 40
1.069306477185541
 40
1.083081819054214
 40
1.096361373787202
 40
1.10901315720328
 40
1.120905184473798
 40
1.131905470251277
 40
1.14188202877756
 40
1.150702873982768
 40
1.158236019598448
 40
1.164349479338338
 40
1.168911267320597
 40
1.171789399632772
 40
1.172851911248311
 40
1.172851911248311
 40
1.172851911248311
 40
1.172851911248311
 10
1764.16772543275
 20
-1313.805098394704
 30
0.0
 10
1764.162845314696
 20
-1313.824038617985
 30
0.0
 10
1764.153061349583
 20
-1313.862011217773
 30
0.0
 10
1764.140562319747
 20
-1313.919544715306
 30
0.0
 10
1764.129424514449
 20
-1313.977346005238
 30
0.0
 10
1764.11970562517
 20
-1314.035101491566
 30
0.0
 10
1764.110476178331
 20
-1314.097645063538
 30
0.0
 10
1764.101893741049
 20
-1314.165396050195
 30
0.0
 10
1764.096150329341
 20
-1314.219373871261
 30
0.0
 10
1764.092737045611
 20
-1314.255068392472
 30
0.0
 10
1764.091124342535
 20
-1314.272657138696
 30
0.0
 10
1764.089442602525
 20
-1314.291875466291
 30
0.0
 10
1764.087708496281
 20
-1314.312730695793
 30
0.0
 10
1764.085938783096
 20
-1314.335230130723
 30
0.0
 10
1764.084150165177
 20
-1314.359381088683
 30
0.0
 10
1764.080771576734
 20
-1314.408079374824
 30
0.0
 10
1764.076483349923
 20
-1314.481289908556
 30
0.0
 10
1764.072115620117
 20
-1314.578904791714
 30
0.0
 10
1764.069561169113
 20
-1314.654544954611
 30
0.0
 10
1764.068057049397
 20
-1314.707650596527
 30
0.0
 10
1764.067274475815
 20
-1314.737638293041
 30
0.0
 10
1764.066559565448
 20
-1314.767140935546
 30
0.0
 10
1764.065909183154
 20
-1314.79584604467
 30
0.0
 10
1764.065403878531
 20
-1314.819504932827
 30
0.0
 10
1764.065016964955
 20
-1314.83835004192
 30
0.0
 10
1764.064730108707
 20
-1314.852674143797
 30
0.0
 10
1764.064454027031
 20
-1314.866766591614
 30
0.0
 10
1764.064190289386
 20
-1314.88049540628
 30
0.0
 10
1764.063940442373
 20
-1314.893728608106
 30
0.0
 10
1764.063706040238
 20
-1314.906334217559
 30
0.0
 10
1764.063488625838
 20
-1314.918180254813
 30
0.0
 10
1764.063289777426
 20
-1314.929134740853
 30
0.0
 10
1764.063110964353
 20
-1314.93906569409
 30
0.0
 10
1764.06295401634
 20
-1314.947841141336
 30
0.0
 10
1764.062819696567
 20
-1314.955329084415
 30
0.0
 10
1764.062711902546
 20
-1314.961397598395
 30
0.0
 10
1764.062626459013
 20
-1314.96591456964
 30
0.0
 10
1764.062578065237
 20
-1314.968748330428
 30
0.0
 10
1764.062544056638
 20
-1314.970061441295
 30
0.0
 10
1764.062534893113
 20
-1314.970415494131
 30
0.0
 11
1764.16772543275
 21
-1313.805098394704
 31
0.0
 11
1764.153447850886
 21
-1313.862006510548
 31
0.0
 11
1764.140789660962
 21
-1313.919588896831
 31
0.0
 11
1764.129635100231
 21
-1313.977484106412
 31
0.0
 11
1764.119868405944
 21
-1314.035330692152
 31
0.0
 11
1764.111373815353
 21
-1314.092767206908
 31
0.0
 11
1764.102173418499
 21
-1314.165110096895
 31
0.0
 11
1764.094325278554
 21
-1314.23856629547
 31
0.0
 11
1764.092798431238
 21
-1314.25453073707
 31
0.0
 11
1764.091185557001
 21
-1314.272117388157
 31
0.0
 11
1764.089503418034
 21
-1314.291333561296
 31
0.0
 11
1764.087768776527
 21
-1314.31218656905
 31
0.0
 11
1764.085998394671
 21
-1314.334683723986
 31
0.0
 11
1764.084209034658
 21
-1314.358832338667
 31
0.0
 11
1764.082417458676
 21
-1314.384639725657
 31
0.0
 11
1764.076730387233
 21
-1314.480833082133
 31
0.0
 11
1764.072311303005
 21
-1314.578500258601
 31
0.0
 11
1764.06892543307
 21
-1314.677444876275
 31
0.0
 11
1764.068066651451
 21
-1314.707709018328
 31
0.0
 11
1764.067279657124
 21
-1314.737800666996
 31
0.0
 11
1764.06656097835
 21
-1314.76740731571
 31
0.0
 11
1764.065907143396
 21
-1314.796216457905
 31
0.0
 11
1764.065314680521
 21
-1314.823915587012
 31
0.0
 11
1764.065017493783
 21
-1314.838383342013
 31
0.0
 11
1764.064729602345
 21
-1314.852751424768
 31
0.0
 11
1764.06445254908
 21
-1314.866887855426
 31
0.0
 11
1764.064187876862
 21
-1314.880660654137
 31
0.0
 11
1764.063937128563
 21
-1314.89393784105
 31
0.0
 11
1764.063701847055
 21
-1314.906587436314
 31
0.0
 11
1764.063483575212
 21
-1314.918477460079
 31
0.0
 11
1764.063283855906
 21
-1314.929475932493
 31
0.0
 11
1764.063104232009
 21
-1314.939450873706
 31
0.0
 11
1764.062946246396
 21
-1314.948270303868
 31
0.0
 11
1764.062811441937
 21
-1314.955802243128
 31
0.0
 11
1764.062701361507
 21
-1314.961914711635
 31
0.0
 11
1764.062617547978
 21
-1314.966475729538
 31
0.0
 11
1764.062561544222
 21
-1314.969353316987
 31
0.0
 11
1764.062534893113
 21
-1314.970415494131
 31
0.0
  0
SPLINE
  5
38F
330
1F
100
AcDbEntity
  8
0
  6
Continuous
 62
     7
100
AcDbSpline
210
0.0
220
0.0
230
1.0
 70
     8
 71
     3
 72
     9
 73
     5
 74
     3
 42
0.000000001
 43
0.0000000001
 44
0.00000001
 40
0.0
 40
0.0
 40
0.0
 40
0.0
 40
0.0233818509847705
 40
0.0467280630368891
 40
0.0467280630368891
 40
0.0467280630368891
 40
0.0467280630368891
 10
1765.94758433555
 20
-1307.564657978896
 30
0.0
 10
1765.951288279773
 20
-1307.55780033972
 30
0.0
 10
1765.958690540186
 20
-1307.544095523434
 30
0.0
 10
1765.966222116935
 20
-1307.530461345982
 30
0.0
 10
1765.96998504195
 20
-1307.523649461372
 30
0.0
 11
1765.94758433555
 21
-1307.564657978896
 31
0.0
 11
1765.958728555442
 21
-1307.544102752798
 31
0.0
 11
1765.96998504195
 21
-1307.523649461372
 31
0.0
  0
SPLINE
  5
390
330
1F
100
AcDbEntity
  8
0
  6
Continuous
 62
     7
100
AcDbSpline
210
0.0
220
0.0
230
1.0
 70
     8
 71
     3
 72
     9
 73
     5
 74
     3
 42
0.000000001
 43
0.0000000001
 44
0.00000001
 40
0.0
 40
0.0
 40
0.0
 40
0.0
 40
0.0061766336610716
 40
0.0124852831214328
 40
0.0124852831214328
 40
0.0124852831214328
 40
0.0124852831214328
 10
1765.935647286072
 20
-1307.568316759566
 30
0.0
 10
1765.937612141563
 20
-1307.567701614076
 30
0.0
 10
1765.941583854131
 20
-1307.566458194445
 30
0.0
 10
1765.945570123227
 20
-1307.565262259457
 30
0.0
 10
1765.94758433555
 20
-1307.564657978896
 30
0.0
 11
1765.935647286072
 21
-1307.568316759566
 31
0.0
 11
1765.941545418032
 21
-1307.56648295389
 31
0.0
 11
1765.94758433555
 21
-1307.564657978896
 31
0.0
  0
SPLINE
  5
391
330
1F
100
AcDbEntity
  8
0
  6
Continuous
 62
     7
100
AcDbSpline
210
0.0
220
0.0
230
1.0
 70
     8
 71
     3
 72
    11
 73
     7
 74
     5
 42
0.000000001
 43
0.0000000001
 44
0.00000001
 40
0.0
 40
0.0
 40
0.0
 40
0.0
 40
0.1248004496283153
 40
0.2485376302354816
 40
0.3776333403978442
 40
0.4894536539091777
 40
0.4894536539091777
 40
0.4894536539091777
 40
0.4894536539091777
 10
1765.935647286072
 20
-1307.568316759566
 30
0.0
 10
1765.911739203008
 20
-1307.602399299183
 30
0.0
 10
1765.864126740335
 20
-1307.670274011862
 30
0.0
 10
1765.804053706793
 20
-1307.781139831727
 30
0.0
 10
1765.755215291656
 20
-1307.892755351972
 30
0.0
 10
1765.732330839762
 20
-1307.969794779478
 30
0.0
 10
1765.721709109925
 20
-1308.005552357352
 30
0.0
 11
1765.935647286072
 21
-1307.568316759566
 31
0.0
 11
1765.86595927081
 21
-1307.671848072846
 31
0.0
 11
1765.806428928492
 21
-1307.780324007649
 31
0.0
 11
1765.755595422169
 21
-1307.898990166682
 31
0.0
 11
1765.721709109925
 21
-1308.005552357352
 31
0.0
  0
SPLINE
  5
392
330
1F
100
AcDbEntity
  8
0
  6
Continuous
 62
     7
100
AcDbSpline
210
0.0
220
0.0
230
1.0
 70
     8
 71
     3
 72
    19
 73
    15
 74
    13
 42
0.000000001
 43
0.0000000001
 44
0.00000001
 40
0.0
 40
0.0
 40
0.0
 40
0.0
 40
0.1756502523999257
 40
0.3513194457384179
 40
0.5950978130824751
 40
0.7884747546202121
 40
0.978362193448561
 40
1.208060461142639
 40
1.387893135346924
 40
1.603724787488065
 40
1.792180556699591
 40
1.974240341800598
 40
2.126360748445712
 40
2.252047333323812
 40
2.252047333323812
 40
2.252047333323812
 40
2.252047333323812
 10
1787.120965113282
 20
-1308.430233908318
 30
0.0
 10
1787.179529136518
 20
-1308.431462948465
 30
0.0
 10
1787.296663497614
 20
-1308.433921175364
 30
0.0
 10
1787.494007281778
 20
-1308.456349339404
 30
0.0
 10
1787.694695491999
 20
-1308.496324941093
 30
0.0
 10
1787.894955113336
 20
-1308.557143424506
 30
0.0
 10
1788.084657567727
 20
-1308.633730661992
 30
0.0
 10
1788.261591112308
 20
-1308.727669696825
 30
0.0
 10
1788.43390566215
 20
-1308.845564097941
 30
0.0
 10
1788.58096464711
 20
-1308.974122386885
 30
0.0
 10
1788.7098783367
 20
-1309.121840366131
 30
0.0
 10
1788.805188819025
 20
-1309.2682590405
 30
0.0
 10
1788.8719714233
 20
-1309.406933631122
 30
0.0
 10
1788.898986454733
 20
-1309.495608775946
 30
0.0
 10
1788.911208700176
 20
-1309.535727552861
 30
0.0
 11
1787.120965113282
 21
-1308.430233908318
 31
0.0
 11
1787.296499368308
 21
-1308.436616335043
 31
0.0
 11
1787.47111698514
 21
-1308.455808855642
 31
0.0
 11
1787.710098604133
 21
-1308.503930345272
 31
0.0
 11
1787.895104889605
 21
-1308.560209256008
 31
0.0
 11
1788.071107065
 21
-1308.63148669784
 31
0.0
 11
1788.273780950213
 21
-1308.739581982608
 31
0.0
 11
1788.422042555647
 21
-1308.841357653687
 31
0.0
 11
1788.584180919867
 21
-1308.983816255718
 31
0.0
 11
1788.707690582158
 21
-1309.126157187317
 31
0.0
 11
1788.80696464476
 21
-1309.278769201508
 31
0.0
 11
1788.871813769141
 21
-1309.41637447197
 31
0.0
 11
1788.911208700176
 21
-1309.535727552861
 31
0.0
  0
SPLINE
  5
393
330
1F
100
AcDbEntity
  8
0
  6
Continuous
 62
     7
100
AcDbSpline
210
0.0
220
0.0
230
1.0
 70
     8
 71
     3
 72
     9
 73
     5
 74
     3
 42
0.000000001
 43
0.0000000001
 44
0.00000001
 40
0.0
 40
0.0
 40
0.0
 40
0.0
 40
0.1016279753955605
 40
0.3230701726415109
 40
0.3230701726415109
 40
0.3230701726415109
 40
0.3230701726415109
 10
1762.654200678099
 20
-1309.564456001911
 30
0.0
 10
1762.68100237469
 20
-1309.586149329179
 30
0.0
 10
1762.76620359103
 20
-1309.655111330687
 30
0.0
 10
1762.792045706203
 20
-1309.764590588063
 30
0.0
 10
1762.809758671366
 20
-1309.839631034516
 30
0.0
 11
1762.654200678099
 21
-1309.564456001911
 31
0.0
 11
1762.728731952789
 21
-1309.633545327629
 31
0.0
 11
1762.809758671366
 21
-1309.839631034516
 31
0.0
  0
SPLINE
  5
394
330
1F
100
AcDbEntity
  8
0
  6
Continuous
 62
     7
100
AcDbSpline
210
0.0
220
0.0
230
1.0
 70
     8
 71
     3
 72
    17
 73
    13
 74
    11
 42
0.000000001
 43
0.0000000001
 44
0.00000001
 40
0.0
 40
0.0
 40
0.0
 40
0.0
 40
0.1493384516974687
 40
0.2778053913185247
 40
0.6468554359736134
 40
1.042407284349879
 40
1.272105551967627
 40
1.461992990773374
 40
1.655369932285797
 40
1.899148299602638
 40
2.059406479399395
 40
2.250466105927027
 40
2.250466105927027
 40
2.250466105927027
 40
2.250466105927027
 10
1765.553202034951
 20
-1309.535727552861
 30
0.0
 10
1765.568002498455
 20
-1309.488116863157
 30
0.0
 10
1765.595534928313
 20
-1309.39954954857
 30
0.0
 10
1765.691070355777
 20
-1309.205578045273
 30
0.0
 10
1765.874335977198
 20
-1308.965986521412
 30
0.0
 10
1766.139314877909
 20
-1308.761414891452
 30
0.0
 10
1766.379724969932
 20
-1308.633740766966
 30
0.0
 10
1766.569462899327
 20
-1308.557141154162
 30
0.0
 10
1766.769711654522
 20
-1308.496324675451
 30
0.0
 10
1766.965361667937
 20
-1308.45735925319
 30
0.0
 10
1767.162597879694
 20
-1308.434312311245
 30
0.0
 10
1767.279739611819
 20
-1308.431670575007
 30
0.0
 10
1767.343445621852
 20
-1308.430233908318
 30
0.0
 11
1765.553202034951
 21
-1309.535727552861
 31
0.0
 11
1765.601503807663
 21
-1309.394416148703
 31
0.0
 11
1765.657446090369
 21
-1309.278769201504
 31
0.0
 11
1765.879814945209
 21
-1308.984235618413
 31
0.0
 11
1766.190629784916
 21
-1308.739581982607
 31
0.0
 11
1766.393303670122
 21
-1308.631486697842
 31
0.0
 11
1766.569305845524
 21
-1308.560209256007
 31
0.0
 11
1766.754312130989
 21
-1308.503930345273
 31
0.0
 11
1766.993293749988
 21
-1308.455808855641
 31
0.0
 11
1767.15253533982
 21
-1308.437786651143
 31
0.0
 11
1767.343445621852
 21
-1308.430233908318
 31
0.0
  0
SPLINE
  5
395
330
1F
100
AcDbEntity
  8
0
  6
Continuous
 62
     7
100
AcDbSpline
210
0.0
220
0.0
230
1.0
 70
     8
 71
     3
 72
    11
 73
     7
 74
     5
 42
0.000000001
 43
0.0000000001
 44
0.00000001
 40
0.0
 40
0.0
 40
0.0
 40
0.0
 40
0.127848336536581
 40
0.2409154095912938
 40
0.3554206538042656
 40
0.4894521751745897
 40
0.4894521751745897
 40
0.4894521751745897
 40
0.4894521751745897
 10
1788.742701625203
 20
-1308.005552357359
 30
0.0
 10
1788.730418506855
 20
-1307.964699714981
 30
0.0
 10
1788.70727237676
 20
-1307.887717637936
 30
0.0
 10
1788.659039626929
 20
-1307.779264443366
 30
0.0
 10
1788.601902296273
 20
-1307.672920083237
 30
0.0
 10
1788.554387404032
 20
-1307.604964181839
 30
0.0
 10
1788.528763449054
 20
-1307.568316759566
 30
0.0
 11
1788.742701625203
 21
-1308.005552357359
 31
0.0
 11
1788.703163496599
 21
-1307.883971381499
 31
0.0
 11
1788.657981806634
 21
-1307.780324007649
 31
0.0
 11
1788.603237922075
 21
-1307.679752847514
 31
0.0
 11
1788.528763449054
 21
-1307.568316759566
 31
0.0
  0
SPLINE
  5
396
330
1F
100
AcDbEntity
  8
0
  6
Continuous
 62
     7
100
AcDbSpline
210
0.0
220
0.0
230
1.0
 70
     8
 71
     3
 72
    11
 73
     7
 74
     5
 42
0.000000001
 43
0.0000000001
 44
0.00000001
 40
0.0
 40
0.0
 40
0.0
 40
0.0
 40
0.125076242959381
 40
0.2363613432147428
 40
0.3480840425845032
 40
0.4795644774936201
 40
0.4795644774936201
 40
0.4795644774936201
 40
0.4795644774936201
 10
1788.742701625203
 20
-1308.005552357359
 30
0.0
 10
1788.730792660675
 20
-1307.965560230376
 30
0.0
 10
1788.708287822851
 20
-1307.889985588305
 30
0.0
 10
1788.662427284519
 20
-1307.783204772428
 30
0.0
 10
1788.608340282702
 20
-1307.67796747949
 30
0.0
 10
1788.563573782283
 20
-1307.610304359554
 30
0.0
 10
1788.53937211831
 20
-1307.573724339851
 30
0.0
 11
1788.742701625203
 21
-1308.005552357359
 31
0.0
 11
1788.704556406954
 21
-1307.886434730576
 31
0.0
 11
1788.661328389476
 21
-1307.783888583739
 31
0.0
 11
1788.609738575252
 21
-1307.68479038598
 31
0.0
 11
1788.53937211831
 21
-1307.573724339851
 31
0.0
  0
SPLINE
  5
397
330
1F
100
AcDbEntity
  8
0
  6
Continuous
 62
     7
100
AcDbSpline
210
0.0
220
0.0
230
1.0
 70
     8
 71
     3
 72
    11
 73
     7
 74
     5
 42
0.000000001
 43
0.0000000001
 44
0.00000001
 40
0.0
 40
0.0
 40
0.0
 40
0.0
 40
0.1167506886225039
 40
0.2432819115933833
 40
0.3695409992757881
 40
0.4795651079724101
 40
0.4795651079724101
 40
0.4795651079724101
 40
0.4795651079724101
 10
1765.925038616817
 20
-1307.573724339851
 30
0.0
 10
1765.903474820425
 20
-1307.606148942082
 30
0.0
 10
1765.858540780666
 20
-1307.673714455122
 30
0.0
 10
1765.801568348522
 20
-1307.78315517163
 30
0.0
 10
1765.754354796151
 20
-1307.894750832924
 30
0.0
 10
1765.732080854428
 20
-1307.970349982713
 30
0.0
 10
1765.721709109925
 20
-1308.005552357352
 30
0.0
 11
1765.925038616817
 21
-1307.573724339851
 31
0.0
 11
1765.862057707328
 21
-1307.672030638747
 31
0.0
 11
1765.803048888205
 21
-1307.783959678228
 31
0.0
 11
1765.75466170944
 21
-1307.900578880778
 31
0.0
 11
1765.721709109925
 21
-1308.005552357352
 31
0.0
  0
SPLINE
  5
398
330
1F
100
AcDbEntity
  8
0
  6
Continuous
 62
     7
100
AcDbSpline
210
0.0
220
0.0
230
1.0
 70
     8
 71
     3
 72
     9
 73
     5
 74
     3
 42
0.000000001
 43
0.0000000001
 44
0.00000001
 40
0.0
 40
0.0
 40
0.0
 40
0.0
 40
0.006308649459774
 40
0.0124852831205609
 40
0.0124852831205609
 40
0.0124852831205609
 40
0.0124852831205609
 10
1788.516826399577
 20
-1307.564657978896
 30
0.0
 10
1788.5188406119
 20
-1307.565262259457
 30
0.0
 10
1788.522826880996
 20
-1307.566458194445
 30
0.0
 10
1788.526798593563
 20
-1307.567701614076
 30
0.0
 10
1788.528763449054
 20
-1307.568316759566
 30
0.0
 11
1788.516826399577
 21
-1307.564657978896
 31
0.0
 11
1788.522865317094
 21
-1307.56648295389
 31
0.0
 11
1788.528763449054
 21
-1307.568316759566
 31
0.0
  0
SPLINE
  5
399
330
1F
100
AcDbEntity
  8
0
  6
Continuous
 62
     7
100
AcDbSpline
210
0.0
220
0.0
230
1.0
 70
     8
 71
     3
 72
    11
 73
     7
 74
     5
 42
0.000000001
 43
0.0000000001
 44
0.00000001
 40
0.0
 40
0.0
 40
0.0
 40
0.0
 40
0.0041003961801105
 40
0.0074197568174545
 40
0.0101060294635794
 40
0.0120446293790218
 40
0.0120446293790218
 40
0.0120446293790218
 40
0.0120446293790218
 10
1765.935647286072
 20
-1307.568316759566
 30
0.0
 10
1765.934346791197
 20
-1307.568743266647
 30
0.0
 10
1765.931993515922
 20
-1307.569515034471
 30
0.0
 10
1765.928914713105
 20
-1307.570863377504
 30
0.0
 10
1765.926542519866
 20
-1307.572118766408
 30
0.0
 10
1765.925482808698
 20
-1307.573250110324
 30
0.0
 10
1765.925038616817
 20
-1307.573724339851
 30
0.0
 11
1765.935647286072
 21
-1307.568316759566
 31
0.0
 11
1765.931774164956
 21
-1307.569662907463
 31
0.0
 11
1765.92873294198
 21
-1307.570992984725
 31
0.0
 11
1765.926427651447
 21
-1307.57237202312
 31
0.0
 11
1765.925038616817
 21
-1307.573724339851
 31
0.0
  0
SPLINE
  5
39A
330
1F
100
AcDbEntity
  8
0
  6
Continuous
 62
     7
100
AcDbSpline
210
0.0
220
0.0
230
1.0
 70
     8
 71
     3
 72
    11
 73
     7
 74
     5
 42
0.000000001
 43
0.0000000001
 44
0.00000001
 40
0.0
 40
0.0
 40
0.0
 40
0.0
 40
0.0039071119952314
 40
0.0074196841832573
 40
0.0099779518308453
 40
0.0120439255015878
 40
0.0120439255015878
 40
0.0120439255015878
 40
0.0120439255015878
 10
1788.528763449054
 20
-1307.568316759566
 30
0.0
 10
1788.530002551439
 20
-1307.56872269692
 30
0.0
 10
1788.532355633492
 20
-1307.569493573306
 30
0.0
 10
1788.535400448145
 20
-1307.570815698028
 30
0.0
 10
1788.537827957706
 20
-1307.572097411
 30
0.0
 10
1788.538895277109
 20
-1307.573221931465
 30
0.0
 10
1788.53937211831
 20
-1307.573724339851
 30
0.0
 11
1788.528763449054
 21
-1307.568316759566
 31
0.0
 11
1788.532456087431
 21
-1307.569593426657
 31
0.0
 11
1788.535677793146
 21
-1307.570992984725
 31
0.0
 11
1788.537879260707
 21
-1307.572296183076
 31
0.0
 11
1788.53937211831
 21
-1307.573724339851
 31
0.0
  0
SPLINE
  5
39B
330
1F
100
AcDbEntity
  8
0
  6
Continuous
 62
     7
100
AcDbSpline
210
0.0
220
0.0
230
1.0
 70
     8
 71
     3
 72
     9
 73
     5
 74
     3
 42
0.000000001
 43
0.0000000001
 44
0.00000001
 40
0.0
 40
0.0
 40
0.0
 40
0.0
 40
0.0233462120519194
 40
0.0467280630373233
 40
0.0467280630373233
 40
0.0467280630373233
 40
0.0467280630373233
 10
1788.494425693176
 20
-1307.523649461372
 30
0.0
 10
1788.498188618191
 20
-1307.530461345983
 30
0.0
 10
1788.50572019494
 20
-1307.544095523434
 30
0.0
 10
1788.513122455353
 20
-1307.55780033972
 30
0.0
 10
1788.516826399577
 20
-1307.564657978896
 30
0.0
 11
1788.494425693176
 21
-1307.523649461372
 31
0.0
 11
1788.505682179684
 21
-1307.544102752798
 31
0.0
 11
1788.516826399577
 21
-1307.564657978896
 31
0.0
  0
SPLINE
  5
39C
330
1F
100
AcDbEntity
  8
0
  6
Continuous
 62
     7
100
AcDbSpline
210
0.0
220
0.0
230
1.0
 70
     8
 71
     3
 72
    11
 73
     7
 74
     5
 42
0.000000001
 43
0.0000000001
 44
0.00000001
 40
0.0
 40
0.0
 40
0.0
 40
0.0
 40
0.0238943265365744
 40
0.0475252570637121
 40
0.0726868391299633
 40
0.0947787553731779
 40
0.0947787553731779
 40
0.0947787553731779
 40
0.0947787553731779
 10
1766.02434217532
 20
-1307.446199395052
 30
0.0
 10
1766.019216399488
 20
-1307.452298111812
 30
0.0
 10
1766.009021362747
 20
-1307.464428326376
 30
0.0
 10
1765.994643002801
 20
-1307.48394537433
 30
0.0
 10
1765.981498681625
 20
-1307.503599609216
 30
0.0
 10
1765.97365302876
 20
-1307.51726201912
 30
0.0
 10
1765.96998504195
 20
-1307.523649461372
 30
0.0
 11
1766.02434217532
 21
-1307.446199395052
 31
0.0
 11
1766.009165545467
 21
-1307.464654983788
 31
0.0
 11
1765.995087455254
 21
-1307.483634664427
 31
0.0
 11
1765.98118937585
 21
-1307.504609616894
 31
0.0
 11
1765.96998504195
 21
-1307.523649461372
 31
0.0
  0
SPLINE
  5
39D
330
1F
100
AcDbEntity
  8
0
  6
Continuous
 62
     7
100
AcDbSpline
210
0.0
220
0.0
230
1.0
 70
     8
 71
     3
 72
    11
 73
     7
 74
     5
 42
0.000000001
 43
0.0000000001
 44
0.00000001
 40
0.0
 40
0.0
 40
0.0
 40
0.0
 40
0.022509887180118
 40
0.0475251999089525
 40
0.0698902205393576
 40
0.0947786682340215
 40
0.0947786682340215
 40
0.0947786682340215
 40
0.0947786682340215
 10
1788.440068559806
 20
-1307.446199395052
 30
0.0
 10
1788.444901338682
 20
-1307.451941081152
 30
0.0
 10
1788.455104788846
 20
-1307.464063532005
 30
0.0
 10
1788.468956384457
 20
-1307.482812152142
 30
0.0
 10
1788.482412772523
 20
-1307.50280925988
 30
0.0
 10
1788.490281325328
 20
-1307.516459737576
 30
0.0
 10
1788.494425693176
 20
-1307.523649461372
 30
0.0
 11
1788.440068559806
 21
-1307.446199395052
 31
0.0
 11
1788.454390925015
 21
-1307.46356501875
 31
0.0
 11
1788.469323279873
 21
-1307.483634664427
 31
0.0
 11
1788.481734588805
 21
-1307.502239867467
 31
0.0
 11
1788.494425693176
 21
-1307.523649461372
 31
0.0
  0
SPLINE
  5
39E
330
1F
100
AcDbEntity
  8
0
  6
Continuous
 62
     7
100
AcDbSpline
210
0.0
220
0.0
230
1.0
 70
     8
 71
     3
 72
    21
 73
    17
 74
    15
 42
0.000000001
 43
0.0000000001
 44
0.00000001
 40
0.0
 40
0.0
 40
0.0
 40
0.0
 40
0.0590809928153447
 40
0.1320877246397067
 40
0.1917840945260498
 40
0.2497317692741984
 40
0.3068536028916111
 40
0.3518315627884649
 40
0.4006548002890525
 40
0.4386309922319321
 40
0.5091477119052182
 40
0.5669901120095517
 40
0.592261295644805
 40
0.6115198672362759
 40
0.629064810952802
 40
0.6482356798673489
 40
0.6482356798673489
 40
0.6482356798673489
 40
0.6482356798673489
 10
1761.062205367566
 20
-1321.464456001862
 30
0.0
 10
1761.042510788258
 20
-1321.464672859584
 30
0.0
 10
1760.998479500887
 20
-1321.465157685383
 30
0.0
 10
1760.934643751875
 20
-1321.469177202247
 30
0.0
 10
1760.871418398721
 20
-1321.475718487281
 30
0.0
 10
1760.813754088005
 20
-1321.484121472709
 30
0.0
 10
1760.761331214019
 20
-1321.494129768352
 30
0.0
 10
1760.712380546447
 20
-1321.505793252687
 30
0.0
 10
1760.670164597033
 20
-1321.518022974201
 30
0.0
 10
1760.620664642798
 20
-1321.535384211641
 30
0.0
 10
1760.569921708017
 20
-1321.558073600886
 30
0.0
 10
1760.52687046333
 20
-1321.586624048819
 30
0.0
 10
1760.502948960013
 20
-1321.611220542326
 30
0.0
 10
1760.491378454412
 20
-1321.628447149686
 30
0.0
 10
1760.483794760408
 20
-1321.645772765141
 30
0.0
 10
1760.482750579633
 20
-1321.658047070849
 30
0.0
 10
1760.482205367564
 20
-1321.66445600191
 30
0.0
 11
1761.062205367566
 21
-1321.464456001862
 31
0.0
 11
1761.003134764203
 21
-1321.465563430107
 31
0.0
 11
1760.930262500611
 21
-1321.469992440783
 31
0.0
 11
1760.870889300499
 21
-1321.476195640862
 31
0.0
 11
1760.81355182046
 21
-1321.484582916281
 31
0.0
 11
1760.757455937489
 21
-1321.495360475468
 31
0.0
 11
1760.713713661033
 21
-1321.50583091573
 31
0.0
 11
1760.666846349702
 21
-1321.519511691856
 31
0.0
 11
1760.631031078835
 21
-1321.532139340716
 31
0.0
 11
1760.567017451662
 21
-1321.561717427591
 31
0.0
 11
1760.519617209317
 21
-1321.59486799586
 31
0.0
 11
1760.502222002314
 21
-1321.613199374831
 31
0.0
 11
1760.491572116807
 21
-1321.629245323554
 31
0.0
 11
1760.484912523165
 21
-1321.645477227588
 31
0.0
 11
1760.482205367564
 21
-1321.66445600191
 31
0.0
  0
SPLINE
  5
39F
330
1F
100
AcDbEntity
  8
0
  6
Continuous
 62
     7
100
AcDbSpline
210
0.0
220
0.0
230
1.0
 70
     8
 71
     3
 72
     9
 73
     5
 74
     3
 42
0.000000001
 43
0.0000000001
 44
0.00000001
 40
0.0
 40
0.0
 40
0.0
 40
0.0
 40
0.2214421972462833
 40
0.3230701726418437
 40
0.3230701726418437
 40
0.3230701726418437
 40
0.3230701726418437
 10
1791.65465206376
 20
-1309.839631034516
 30
0.0
 10
1791.672365028923
 20
-1309.764590588062
 30
0.0
 10
1791.698207144097
 20
-1309.655111330688
 30
0.0
 10
1791.783408360437
 20
-1309.586149329179
 30
0.0
 10
1791.810210057028
 20
-1309.564456001911
 30
0.0
 11
1791.65465206376
 21
-1309.839631034516
 31
0.0
 11
1791.735678782338
 21
-1309.633545327629
 31
0.0
 11
1791.810210057028
 21
-1309.564456001911
 31
0.0
  0
SPLINE
  5
3A0
330
1F
100
AcDbEntity
  8
0
  6
Continuous
 62
     7
100
AcDbSpline
210
0.0
220
0.0
230
1.0
 70
     8
 71
     3
 72
    23
 73
    19
 74
    17
 42
0.000000001
 43
0.0000000001
 44
0.00000001
 40
0.0
 40
0.0
 40
0.0
 40
0.0
 40
0.0191708689131605
 40
0.0367158126173183
 40
0.0577186194991875
 40
0.081245050123947
 40
0.1082029060998964
 40
0.1382703822302976
 40
0.1724228907942224
 40
0.2097374479862908
 40
0.2477136399287814
 40
0.2965368774201451
 40
0.341514837307868
 40
0.3986366709198556
 40
0.4625744657501045
 40
0.5162803965845776
 40
0.5752630909369854
 40
0.648368161605765
 40
0.648368161605765
 40
0.648368161605765
 40
0.648368161605765
 10
1793.982205367564
 20
-1321.66445600191
 30
0.0
 10
1793.981659914396
 20
-1321.658047042916
 30
0.0
 10
1793.980615271861
 20
-1321.645772683712
 30
0.0
 10
1793.972798704691
 20
-1321.62790757847
 30
0.0
 10
1793.961062515335
 20
-1321.6107734404
 30
0.0
 10
1793.944307733197
 20
-1321.593677453473
 30
0.0
 10
1793.923088810466
 20
-1321.577131555258
 30
0.0
 10
1793.897220957302
 20
-1321.561085397566
 30
0.0
 10
1793.866987163074
 20
-1321.545796397006
 30
0.0
 10
1793.833304603054
 20
-1321.531714464794
 30
0.0
 10
1793.79424411112
 20
-1321.518024969368
 30
0.0
 10
1793.752030745537
 20
-1321.505792739839
 30
0.0
 10
1793.703079282302
 20
-1321.494129863647
 30
0.0
 10
1793.648694959111
 20
-1321.483747266852
 30
0.0
 10
1793.591007368863
 20
-1321.475473707718
 30
0.0
 10
1793.532424434757
 20
-1321.469527340711
 30
0.0
 10
1793.470609493422
 20
-1321.465358876135
 30
0.0
 10
1793.426576045184
 20
-1321.464777674714
 30
0.0
 10
1793.40220536756
 20
-1321.464456001862
 30
0.0
 11
1793.982205367564
 21
-1321.66445600191
 31
0.0
 11
1793.97949821196
 21
-1321.645477227583
 31
0.0
 11
1793.972838618319
 21
-1321.629245323554
 31
0.0
 11
1793.96109080957
 21
-1321.61183535999
 31
0.0
 11
1793.94479352581
 21
-1321.59486799586
 31
0.0
 11
1793.923649387863
 21
-1321.578145214927
 31
0.0
 11
1793.898181961278
 21
-1321.562161996157
 31
0.0
 11
1793.867765599359
 21
-1321.546630133741
 31
0.0
 11
1793.833379656292
 21
-1321.532139340716
 31
0.0
 11
1793.797564385422
 21
-1321.519511691855
 31
0.0
 11
1793.750697074094
 21
-1321.50583091573
 31
0.0
 11
1793.706954797641
 21
-1321.495360475469
 31
0.0
 11
1793.650858914667
 21
-1321.484582916281
 31
0.0
 11
1793.587574665273
 21
-1321.475464507122
 31
0.0
 11
1793.534148234516
 21
-1321.469992440783
 31
0.0
 11
1793.475290781637
 21
-1321.466150761197
 31
0.0
 11
1793.40220536756
 21
-1321.464456001862
 31
0.0
  0
SPLINE
  5
3A1
330
1F
100
AcDbEntity
  8
0
  6
Continuous
 62
     7
100
AcDbSpline
210
0.0
220
0.0
230
1.0
 70
     8
 71
     3
 72
    44
 73
    40
 74
    38
 42
0.000000001
 43
0.0000000001
 44
0.00000001
 40
0.0
 40
0.0
 40
0.0
 40
0.0
 40
0.0010625119745784
 40
0.003940644852946
 40
0.0085024335550029
 40
0.0146158941159822
 40
0.0221490406016738
 40
0.0309698866728673
 40
0.040946446008313
 40
0.0519467324862897
 40
0.0638387602947223
 40
0.0764905440345172
 40
0.0897700988242268
 40
0.1035454404291949
 40
0.117684585422075
 40
0.1320555513849677
 40
0.1465263571878792
 40
0.1742318234467655
 40
0.2030483857675733
 40
0.2326637573749059
 40
0.2627656969990584
 40
0.2930420226320699
 40
0.3920445505099626
 40
0.4898116519850708
 40
0.586172983643881
 40
0.6120424818848239
 40
0.6362572991134596
 40
0.6588240048161483
 40
0.6797490349980478
 40
0.6990386922279943
 40
0.7166991461795292
 40
0.7327364349706131
 40
0.8066106886890582
 40
0.8795362721667463
 40
0.9375975433885109
 40
0.9962628274265356
 40
1.05522280724164
 40
1.114180086828547
 40
1.172851911160825
 40
1.172851911160825
 40
1.172851911160825
 40
1.172851911160825
 10
1790.401875841989
 20
-1314.970415494078
 30
0.0
 10
1790.401866678469
 20
-1314.970061441122
 30
0.0
 10
1790.401832669892
 20
-1314.968748329946
 30
0.0
 10
1790.401784276103
 20
-1314.96591456861
 30
0.0
 10
1790.401698832574
 20
-1314.961397596663
 30
0.0
 10
1790.401591038539
 20
-1314.955329081879
 30
0.0
 10
1790.401456718757
 20
-1314.947841137948
 30
0.0
 10
1790.401299770726
 20
-1314.939065689854
 30
0.0
 10
1790.401120957637
 20
-1314.929134735824
 30
0.0
 10
1790.400922109208
 20
-1314.918180249103
 30
0.0
 10
1790.400704694794
 20
-1314.906334211327
 30
0.0
 10
1790.400470292647
 20
-1314.893728601569
 30
0.0
 10
1790.40022044563
 20
-1314.880495399705
 30
0.0
 10
1790.399956707984
 20
-1314.866766585319
 30
0.0
 10
1790.399680626316
 20
-1314.852674138156
 30
0.0
 10
1790.399393770087
 20
-1314.838350037356
 30
0.0
 10
1790.399006856516
 20
-1314.819504928805
 30
0.0
 10
1790.398501551886
 20
-1314.795846040597
 30
0.0
 10
1790.397851169566
 20
-1314.767140930714
 30
0.0
 10
1790.397136259175
 20
-1314.737638287591
 30
0.0
 10
1790.396353685566
 20
-1314.707650590484
 30
0.0
 10
1790.394849565888
 20
-1314.654544950503
 30
0.0
 10
1790.392295114925
 20
-1314.57890478912
 30
0.0
 10
1790.38792738506
 20
-1314.481289904847
 30
0.0
 10
1790.383639157982
 20
-1314.408079367848
 30
0.0
 10
1790.380260569273
 20
-1314.359381079223
 30
0.0
 10
1790.378471951351
 20
-1314.335230121799
 30
0.0
 10
1790.376702238168
 20
-1314.312730687436
 30
0.0
 10
1790.374968131941
 20
-1314.291875458546
 30
0.0
 10
1790.373286391959
 20
-1314.272657131627
 30
0.0
 10
1790.371673688928
 20
-1314.255068386158
 30
0.0
 10
1790.368260405431
 20
-1314.219373867883
 30
0.0
 10
1790.362516994064
 20
-1314.165396050215
 30
0.0
 10
1790.353934557219
 20
-1314.097645066604
 30
0.0
 10
1790.344705110525
 20
-1314.035101495099
 30
0.0
 10
1790.334986221228
 20
-1313.977346008253
 30
0.0
 10
1790.323848415839
 20
-1313.919544717503
 30
0.0
 10
1790.311349385831
 20
-1313.86201121894
 30
0.0
 10
1790.301565420538
 20
-1313.824038618413
 30
0.0
 10
1790.296685302386
 20
-1313.805098394738
 30
0.0
 11
1790.401875841989
 21
-1314.970415494078
 31
0.0
 11
1790.401849190893
 21
-1314.969353316574
 31
0.0
 11
1790.401793187141
 21
-1314.966475728559
 31
0.0
 11
1790.401709373609
 21
-1314.961914709936
 31
0.0
 11
1790.40159929317
 21
-1314.955802240608
 31
0.0
 11
1790.401464488699
 21
-1314.948270300478
 31
0.0
 11
1790.401306503069
 21
-1314.93945086945
 31
0.0
 11
1790.401126879156
 21
-1314.929475927428
 31
0.0
 11
1790.400927159833
 21
-1314.918477454314
 31
0.0
 11
1790.400708887976
 21
-1314.906587430011
 31
0.0
 11
1790.400473606456
 21
-1314.893937834424
 31
0.0
 11
1790.400222858151
 21
-1314.880660647455
 31
0.0
 11
1790.399958185933
 21
-1314.866887849007
 31
0.0
 11
1790.399681132676
 21
-1314.852751418985
 31
0.0
 11
1790.399393241255
 21
-1314.838383337291
 31
0.0
 11
1790.399096054545
 21
-1314.823915583828
 31
0.0
 11
1790.398503591643
 21
-1314.796216453748
 31
0.0
 11
1790.397849756663
 21
-1314.767407310832
 31
0.0
 11
1790.397131077866
 21
-1314.737800661536
 31
0.0
 11
1790.396344083513
 21
-1314.707709012315
 31
0.0
 11
1790.395485301865
 21
-1314.677444869623
 31
0.0
 11
1790.392099432158
 21
-1314.578500258939
 31
0.0
 11
1790.387680347838
 21
-1314.480833080663
 31
0.0
 11
1790.381993275787
 21
-1314.384639715675
 31
0.0
 11
1790.380201699792
 21
-1314.358832329202
 31
0.0
 11
1790.378412339773
 21
-1314.334683715053
 31
0.0
 11
1790.376641957921
 21
-1314.312186560678
 31
0.0
 11
1790.37490731643
 21
-1314.29133355353
 31
0.0
 11
1790.373225177491
 21
-1314.272117381061
 31
0.0
 11
1790.371612303297
 21
-1314.254530730723
 31
0.0
 11
1790.370085456042
 21
-1314.238566289968
 31
0.0
 11
1790.36223731684
 21
-1314.165110098599
 31
0.0
 11
1790.353036920315
 21
-1314.092767210732
 31
0.0
 11
1790.344542329769
 21
-1314.035330695811
 31
0.0
 11
1790.334775635461
 21
-1313.977484109526
 31
0.0
 11
1790.323621074632
 21
-1313.919588899103
 31
0.0
 11
1790.310962884527
 21
-1313.862006511765
 31
0.0
 11
1790.296685302386
 21
-1313.805098394738
 31
0.0
  0
ARC
  5
3A2
102
{ACAD_REACTORS
330
3E9
102
}
330
1F
100
AcDbEntity
  8
1
  6
Continuous
 62
     7
100
AcDbCircle
 10
1817.345927950289
 20
-1521.513267759317
 30
0.0
 40
0.3333333333330302
100
AcDbArc
 50
180.0
 51
299.9816393689496
  0
ARC
  5
3A3
102
{ACAD_REACTORS
330
3E9
102
}
330
1F
100
AcDbEntity
  8
1
  6
Continuous
 62
     7
100
AcDbCircle
 10
1817.345927950289
 20
-1516.668267438983
 30
0.0
 40
0.3333333333339655
100
AcDbArc
 50
60.01836063105042
 51
180.0
  0
ARC
  5
3A4
330
1F
100
AcDbEntity
  8
1
  6
Continuous
 62
     7
100
AcDbCircle
 10
1823.012409483183
 20
-1519.09076759915
 30
0.0
 40
0.1666666666667669
100
AcDbArc
 50
299.9816393685863
 51
60.01836063125743
  0
ARC
  5
3A5
330
1F
100
AcDbEntity
  8
1
  6
Continuous
 62
     7
100
AcDbCircle
 10
1806.346113084063
 20
-1519.09076759915
 30
0.0
 40
0.1666666666665472
100
AcDbArc
 50
119.9816393690811
 51
240.0183606310752
  0
ARC
  5
3A6
102
{ACAD_REACTORS
330
3EB
102
}
330
1F
100
AcDbEntity
  8
1
  6
Continuous
 62
     7
100
AcDbCircle
 10
1812.345927950289
 20
-1521.320746451117
 30
0.0
 40
0.6666666666660603
100
AcDbArc
 50
180.0
 51
240.018360631193
  0
ARC
  5
3A7
102
{ACAD_REACTORS
330
3EC
102
}
330
1F
100
AcDbEntity
  8
1
  6
Continuous
 62
     7
100
AcDbCircle
 10
1814.679261283623
 20
-1518.757434265817
 30
0.0
 40
0.1666666666669882
100
AcDbArc
 50
209.9999999998158
 51
330.0000000000278
  0
MTEXT
  5
3A9
330
1F
100
AcDbEntity
  8
1
 62
     7
100
AcDbMText
 10
1792.679261283623
 20
-1521.530128178394
 30
0.0
 40
4.5
 41
0.0
 71
     5
 72
     1
  1
1:1
  7
CONVERTER_11
 73
     1
 44
1.32052821128451
  0
MTEXT
  5
3AA
330
1F
100
AcDbEntity
  8
1
 62
     7
100
AcDbMText
 10
1792.679261283623
 20
-1515.330128178394
 30
0.0
 40
3.0
 41
0.0
 71
     5
 72
     1
  1
Scale
  7
CONVERTER_11
 73
     1
 44
1.32052821128451
  0
MTEXT
  5
3AB
330
1F
100
AcDbEntity
  8
1
 62
     7
100
AcDbMText
 10
1680.279261283623
 20
-1519.09076759915
 30
0.0
 40
4.5
 41
0.0
 71
     4
 72
     1
  1
CQS 08 VG\PEMC plastic hood top entry PG 21 with lever
  7
CONVERTER_11
 73
     1
 44
0.90036014405762
  0
MTEXT
  5
3AC
330
1F
100
AcDbEntity
  8
1
 62
     7
100
AcDbMText
 10
1656.60296059488
 20
-1522.84076759915
 30
0.0
 40
3.0
 41
0.0
 71
     4
 72
     1
  1
N. Visentin
  7
CONVERTER_11
 73
     1
 44
1.32052821128451
  0
MTEXT
  5
3AD
330
1F
100
AcDbEntity
  8
1
 62
     7
100
AcDbMText
 10
1646.00296059488
 20
-1522.84076759915
 30
0.0
 40
3.0
 41
0.0
 71
     4
 72
     1
  1
Sign.
  7
CONVERTER_11
 73
     1
 44
1.32052821128451
  0
MTEXT
  5
3AE
330
1F
100
AcDbEntity
  8
1
 62
     7
100
AcDbMText
 10
1656.60296059488
 20
-1515.330128178394
 30
0.0
 40
3.0
 41
0.0
 71
     4
 72
     1
  1
16/03/09
  7
CONVERTER_11
 73
     1
 44
1.32052821128451
  0
MTEXT
  5
3AF
330
1F
100
AcDbEntity
  8
1
 62
     7
100
AcDbMText
 10
1646.00296059488
 20
-1515.330128178394
 30
0.0
 40
3.0
 41
0.0
 71
     4
 72
     1
  1
Date
  7
CONVERTER_11
 73
     1
 44
1.32052821128451
  0
MTEXT
  5
3B0
330
1F
100
AcDbEntity
  8
1
 62
     7
100
AcDbMText
 10
1639.00296059488
 20
-1380.09076759915
 30
0.0
 40
4.0
 41
0.0
 71
     5
 72
     1
  1
Diritti riservati      All rights reserved
  7
CONVERTER_11
 11
0.0
 21
1.0
 31
0.0
 73
     1
 44
1.32052821128451
  0
DIMENSION
  5
3BC
330
1F
100
AcDbEntity
  8
1
100
AcDbDimension
  2
*D1
 10
1763.135421919535
 20
-1415.74849430881
 30
0.0
 11
1777.232205367563
 21
-1411.79849430881
 31
0.0
 70
    32
  1
Pg 21
 71
     5
 42
-1.0
 53
0.00013888888889
  3
ME10_DIM_10
100
AcDbAlignedDimension
 13
1791.328988815591
 23
-1395.765986773561
 33
0.0
 14
1763.135421919535
 24
-1395.765986773561
 34
0.0
100
AcDbRotatedDimension
  0
DIMENSION
  5
3C7
330
1F
100
AcDbEntity
  8
1
100
AcDbDimension
  2
*D2
 10
1813.7364305744
 20
-1395.765986773561
 30
0.0
 11
1810.2364305744
 21
-1388.265986773561
 31
0.0
 70
    32
  1
<>
 71
     5
 42
-1.0
 53
90.0
  3
ME10_DIM_11
100
AcDbAlignedDimension
 13
1791.732205367563
 23
-1380.765986773561
 33
0.0
 14
1791.328988815591
 24
-1395.765986773561
 34
0.0
 50
90.0
100
AcDbRotatedDimension
  0
DIMENSION
  5
3D2
330
1F
100
AcDbEntity
  8
1
100
AcDbDimension
  2
*D3
 10
1676.053120723017
 20
-1415.74849430881
 30
0.0
 11
1667.162914287593
 21
-1412.24849430881
 31
0.0
 70
    32
  1
18
 71
     5
 42
-1.0
 53
0.00013888888889
  3
ME10_DIM_12
100
AcDbAlignedDimension
 13
1658.272707852168
 23
-1330.515986773561
 33
0.0
 14
1676.053120723017
 24
-1354.765986773561
 34
0.0
100
AcDbRotatedDimension
  0
DIMENSION
  5
3DD
330
1F
100
AcDbEntity
  8
1
100
AcDbDimension
  2
*D4
 10
1722.053120723017
 20
-1415.74849430881
 30
0.0
 11
1699.053120723017
 21
-1412.24849430881
 31
0.0
 70
    32
  1
<>
 71
     5
 42
-1.0
 53
0.00013888888889
  3
ME10_DIM_13
100
AcDbAlignedDimension
 13
1676.053120723017
 23
-1354.765986773561
 33
0.0
 14
1722.053120723017
 24
-1355.265986773561
 34
0.0
100
AcDbRotatedDimension
  0
DIMENSION
  5
3E8
330
1F
100
AcDbEntity
  8
1
100
AcDbDimension
  2
*D5
 10
1813.8864305744
 20
-1330.515986773561
 30
0.0
 11
1810.2364305744
 21
-1355.640986773561
 31
0.0
 70
    32
  1
50,5
 71
     5
 42
-1.0
 53
90.0
  3
ME10_DIM_14
100
AcDbAlignedDimension
 13
1791.732205367563
 23
-1380.765986773561
 33
0.0
 14
1790.607205367563
 24
-1330.515986773561
 34
0.0
 50
90.0
100
AcDbRotatedDimension
  0
HATCH
  5
3E9
330
1F
100
AcDbEntity
  8
1
  6
Continuous
 62
     7
100
AcDbHatch
 10
0.0
 20
0.0
 30
0.0
210
0.0
220
0.0
230
1.0
  2
SOLID
 70
     1
 71
     1
 91
        1
 92
        1
 93
       14
 72
     1
 10
1818.51268713246
 20
-1517.726226736896
 11
1817.679261283623
 21
-1517.245404131798
 72
     1
 10
1817.679261283623
 20
-1517.245404131798
 11
1817.679261283623
 21
-1518.757434265817
 72
     1
 10
1817.679261283623
 20
-1518.757434265817
 11
1818.679261283623
 21
-1518.757434265817
 72
     2
 10
1818.679261283623
 20
-1519.09076759915
 40
0.3333333333330302
 50
270.0
 51
450.0
 73
     0
 72
     1
 10
1818.679261283623
 20
-1519.424100932483
 11
1817.679261283623
 21
-1519.424100932483
 72
     1
 10
1817.679261283623
 20
-1519.424100932483
 11
1817.679261283623
 21
-1520.936131066502
 72
     1
 10
1817.679261283623
 20
-1520.936131066502
 11
1818.51268713246
 21
-1520.455308461404
 72
     2
 10
1818.679261283623
 20
-1520.744036990087
 40
0.3333333333335111
 50
240.0183606312001
 51
420.0183606311858
 73
     0
 72
     1
 10
1818.845835434786
 20
-1521.03276551877
 11
1817.512502101453
 21
-1521.801996288
 72
     2
 10
1817.345927950289
 20
-1521.513267759317
 40
0.3333333333330302
 50
60.01836063105041
 51
180.0
 73
     0
 72
     1
 10
1817.012594616956
 20
-1521.513267759317
 11
1817.012594616956
 21
-1516.668267438983
 72
     2
 10
1817.345927950289
 20
-1516.668267438983
 40
0.3333333333339655
 50
180.0
 51
299.9816393689496
 73
     0
 72
     1
 10
1817.512502101453
 20
-1516.3795389103
 11
1818.845835434786
 21
-1517.148769679531
 72
     2
 10
1818.679261283623
 20
-1517.437498208213
 40
0.3333333333333974
 50
299.9816393689118
 51
479.9816393687803
 73
     0
 97
       14
330
5E
330
3A3
330
75
330
3A2
330
57
330
2DE
330
58
330
59
330
5A
330
2DF
330
5B
330
5C
330
5D
330
2E0
 75
     0
 76
     1
 98
        1
 10
0.0
 20
0.0
  0
HATCH
  5
3EA
330
1F
100
AcDbEntity
  8
1
  6
Continuous
 62
     7
100
AcDbHatch
 10
0.0
 20
0.0
 30
0.0
210
0.0
220
0.0
230
1.0
  2
SOLID
 70
     1
 71
     1
 91
        1
 92
        1
 93
        5
 72
     1
 10
1811.012594616956
 20
-1517.437498208213
 11
1811.012594616956
 21
-1520.551515681887
 72
     1
 10
1811.012594616956
 20
-1520.551515681887
 11
1811.012594616956
 21
-1520.744036990087
 72
     2
 10
1810.679261283623
 20
-1520.744036990087
 40
0.3333333333339397
 50
0.0
 51
180.0
 73
     0
 72
     1
 10
1810.345927950289
 20
-1520.744036990087
 11
1810.345927950289
 21
-1517.437498208213
 72
     2
 10
1810.679261283623
 20
-1517.437498208213
 40
0.3333333333330302
 50
180.0
 51
360.0
 73
     0
 97
        5
330
61
330
60
330
2E1
330
5F
330
2E2
 75
     0
 76
     1
 98
        1
 10
0.0
 20
0.0
  0
HATCH
  5
3EB
330
1F
100
AcDbEntity
  8
1
  6
Continuous
 62
     7
100
AcDbHatch
 10
0.0
 20
0.0
 30
0.0
210
0.0
220
0.0
230
1.0
  2
SOLID
 70
     1
 71
     1
 91
        1
 92
        1
 93
        7
 72
     1
 10
1812.345927950289
 20
-1516.668267438983
 11
1812.345927950289
 21
-1521.320746451117
 72
     1
 10
1812.345927950289
 20
-1521.320746451117
 11
1814.512502101453
 21
-1522.570693076788
 72
     2
 10
1814.345927950289
 20
-1522.859421605471
 40
0.3333333333335111
 50
299.9816393689691
 51
479.9816393688142
 73
     0
 72
     1
 10
1814.179353799126
 20
-1523.148150134154
 11
1812.012779647963
 21
-1521.898203508483
 72
     2
 10
1812.345927950289
 20
-1521.320746451117
 40
0.6666666666660603
 50
119.981639368807
 51
180.0
 73
     0
 72
     1
 10
1811.679261283623
 20
-1521.320746451117
 11
1811.679261283623
 21
-1516.668267438983
 72
     2
 10
1812.012594616956
 20
-1516.668267438983
 40
0.3333333333330302
 50
180.0
 51
360.0
 73
     0
 97
        7
330
64
330
63
330
2E3
330
62
330
3A6
330
65
330
2E4
 75
     0
 76
     1
 98
        1
 10
0.0
 20
0.0
  0
HATCH
  5
3EC
330
1F
100
AcDbEntity
  8
1
  6
Continuous
 62
     7
100
AcDbHatch
 10
0.0
 20
0.0
 30
0.0
210
0.0
220
0.0
230
1.0
  2
SOLID
 70
     1
 71
     1
 91
        1
 92
        1
 93
       16
 72
     2
 10
1813.277560829431
 20
-1515.859550287116
 40
0.2649662124752487
 50
30.00000000007923
 51
180.0
 73
     1
 72
     1
 10
1813.012594616956
 20
-1515.859550287116
 11
1813.012594616956
 21
-1519.09076759915
 72
     1
 10
1813.012594616956
 20
-1519.09076759915
 11
1813.012594616956
 21
-1520.743182526517
 72
     2
 10
1813.345927950289
 20
-1520.743182526517
 40
0.3333333333330302
 50
180.0
 51
360.0
 73
     1
 72
     1
 10
1813.679261283623
 20
-1520.743182526517
 11
1813.679261283623
 21
-1519.09076759915
 72
     1
 10
1813.679261283623
 20
-1519.09076759915
 11
1813.679261283623
 21
-1517.358716791581
 72
     1
 10
1813.679261283623
 20
-1517.358716791581
 11
1814.534923716325
 21
-1518.84076759915
 72
     2
 10
1814.679261283623
 20
-1518.757434265817
 40
0.1666666666669882
 50
209.9999999998158
 51
330.0000000000278
 73
     1
 72
     1
 10
1814.82359885092
 20
-1518.84076759915
 11
1815.679261283623
 21
-1517.358716791581
 72
     1
 10
1815.679261283623
 20
-1517.358716791581
 11
1815.679261283623
 21
-1519.09076759915
 72
     1
 10
1815.679261283623
 20
-1519.09076759915
 11
1815.679261283623
 21
-1522.282498528548
 72
     2
 10
1816.012594616956
 20
-1522.282498528548
 40
0.3333333333330302
 50
180.0
 51
360.0
 73
     1
 72
     1
 10
1816.345927950289
 20
-1522.282498528548
 11
1816.345927950289
 21
-1515.859550287116
 72
     2
 10
1816.080961737814
 20
-1515.859550287116
 40
0.2649662124749739
 50
0.0
 51
149.9999999999453
 73
     1
 72
     1
 10
1815.851494266666
 20
-1515.727067180878
 11
1814.679261283623
 21
-1517.757434265817
 72
     1
 10
1814.679261283623
 20
-1517.757434265817
 11
1813.507028300579
 21
-1515.727067180878
 97
       16
330
66
330
2E5
330
67
330
2E6
330
68
330
74
330
73
330
3A7
330
72
330
71
330
69
330
2E7
330
6A
330
6C
330
2E8
330
6B
 75
     0
 76
     1
 98
        1
 10
0.0
 20
0.0
  0
HATCH
  5
3ED
330
1F
100
AcDbEntity
  8
1
  6
Continuous
 62
     2
100
AcDbHatch
 10
0.0
 20
0.0
 30
0.0
210
0.0
220
0.0
230
1.0
  2
SOLID
 70
     1
 71
     1
 91
        1
 92
        1
 93
        4
 72
     2
 10
1701.453120723017
 20
-1368.632948408123
 40
0.2000000000000455
 50
180.0
 51
360.0
 73
     1
 72
     1
 10
1701.653120723017
 20
-1368.632948408123
 11
1701.653120723017
 21
-1366.649025138999
 72
     2
 10
1701.453120723017
 20
-1366.649025138999
 40
0.2000000000000455
 50
0.0
 51
180.0
 73
     1
 72
     1
 10
1701.253120723017
 20
-1366.649025138999
 11
1701.253120723017
 21
-1368.632948408123
 97
        4
330
32E
330
1CC
330
329
330
1CE
 75
     0
 76
     1
 98
        1
 10
0.0
 20
0.0
  0
HATCH
  5
3EE
330
1F
100
AcDbEntity
  8
1
  6
Continuous
 62
     2
100
AcDbHatch
 10
0.0
 20
0.0
 30
0.0
210
0.0
220
0.0
230
1.0
  2
SOLID
 70
     1
 71
     1
 91
        1
 92
        1
 93
        7
 72
     2
 10
1700.653120723017
 20
-1369.094486869661
 40
0.2000000000000455
 50
180.0
 51
360.0
 73
     1
 72
     1
 10
1700.853120723017
 20
-1369.094486869661
 11
1700.853120723017
 21
-1366.30299946238
 72
     2
 10
1700.453120723017
 20
-1366.30299946238
 40
0.3999999999998636
 50
0.0
 51
60.01836063109424
 73
     1
 72
     1
 10
1700.653009704413
 20
-1365.956525227961
 11
1699.353065213715
 21
-1365.206557252558
 72
     2
 10
1699.253120723017
 20
-1365.379794369768
 40
0.2000000000002081
 50
60.01836063118757
 51
240.0183606311875
 73
     1
 72
     1
 10
1699.153176232319
 20
-1365.553031486978
 11
1700.453120723017
 21
-1366.30299946238
 72
     1
 10
1700.453120723017
 20
-1366.30299946238
 11
1700.453120723017
 21
-1369.094486869661
 97
        7
330
32C
330
1D2
330
327
330
1DD
330
326
330
1DC
330
1DB
 75
     0
 76
     1
 98
        1
 10
0.0
 20
0.0
  0
HATCH
  5
3EF
330
1F
100
AcDbEntity
  8
1
  6
Continuous
 62
     2
100
AcDbHatch
 10
0.0
 20
0.0
 30
0.0
210
0.0
220
0.0
230
1.0
  2
SOLID
 70
     1
 71
     1
 91
        1
 92
        1
 93
       13
 72
     2
 10
1698.212100450502
 20
-1369.579717160781
 40
0.1589797274850753
 50
180.0
 51
329.9999999998744
 73
     1
 72
     1
 10
1698.349780933191
 20
-1369.659207024524
 11
1699.053120723017
 21
-1368.440986773561
 72
     1
 10
1699.053120723017
 20
-1368.440986773561
 11
1699.756460512843
 21
-1369.659207024524
 72
     2
 10
1699.894140995532
 20
-1369.579717160781
 40
0.158979727485578
 50
210.0000000000846
 51
360.0
 73
     1
 72
     1
 10
1700.053120723017
 20
-1369.579717160781
 11
1700.053120723017
 21
-1366.64953781714
 72
     2
 10
1699.853120723017
 20
-1366.64953781714
 40
0.2000000000000455
 50
0.0
 51
180.0
 73
     1
 72
     1
 10
1699.653120723017
 20
-1366.64953781714
 11
1699.653120723017
 21
-1368.680217258102
 72
     1
 10
1699.653120723017
 20
-1368.680217258102
 11
1699.139723263395
 21
-1367.790986773561
 72
     2
 10
1699.053120723017
 20
-1367.840986773561
 40
0.099999999999666
 50
30.00000000023085
 51
150.0000000000297
 73
     1
 72
     1
 10
1698.966518182638
 20
-1367.790986773561
 11
1698.453120723017
 21
-1368.680217258102
 72
     1
 10
1698.453120723017
 20
-1368.680217258102
 11
1698.453120723017
 21
-1365.725948215922
 72
     2
 10
1698.253120723017
 20
-1365.725948215922
 40
0.2000000000000455
 50
0.0
 51
180.0
 73
     1
 72
     1
 10
1698.053120723017
 20
-1365.725948215922
 11
1698.053120723017
 21
-1369.579717160781
 97
       13
330
32D
330
1E2
330
1E1
330
32F
330
1DA
330
328
330
1CD
330
1DF
330
321
330
1D1
330
1D8
330
323
330
1D6
 75
     0
 76
     1
 98
        1
 10
0.0
 20
0.0
  0
HATCH
  5
3F0
330
1F
100
AcDbEntity
  8
1
  6
Continuous
 62
     2
100
AcDbHatch
 10
0.0
 20
0.0
 30
0.0
210
0.0
220
0.0
230
1.0
  2
SOLID
 70
     1
 71
     1
 91
        1
 92
        1
 93
       14
 72
     1
 10
1696.553176232319
 20
-1368.806185525332
 11
1697.353176232319
 21
-1369.267723986871
 72
     2
 10
1697.453120723017
 20
-1369.094486869661
 40
0.2000000000003218
 50
240.0183606311311
 51
360.0
 73
     1
 72
     1
 10
1697.653120723017
 20
-1369.094486869661
 11
1697.653120723017
 21
-1366.18748667746
 72
     2
 10
1697.453120723017
 20
-1366.18748667746
 40
0.2000000000000455
 50
0.0
 51
119.9816393690316
 73
     1
 72
     1
 10
1697.353176232319
 20
-1366.014249560251
 11
1696.553176232319
 21
-1366.475788021789
 72
     2
 10
1696.653120723017
 20
-1366.649025138999
 40
0.2000000000003218
 50
119.9816393688689
 51
299.9816393689427
 73
     1
 72
     1
 10
1696.753065213715
 20
-1366.822262256208
 11
1697.253120723017
 21
-1366.53376869315
 72
     1
 10
1697.253120723017
 20
-1366.53376869315
 11
1697.253120723017
 21
-1367.440986773561
 72
     1
 10
1697.253120723017
 20
-1367.440986773561
 11
1696.653120723017
 21
-1367.440986773561
 72
     2
 10
1696.653120723017
 20
-1367.640986773561
 40
0.2000000000000455
 50
90.0
 51
270.0
 73
     1
 72
     1
 10
1696.653120723017
 20
-1367.840986773561
 11
1697.253120723017
 21
-1367.840986773561
 72
     1
 10
1697.253120723017
 20
-1367.840986773561
 11
1697.253120723017
 21
-1368.748204853972
 72
     1
 10
1697.253120723017
 20
-1368.748204853972
 11
1696.753065213715
 21
-1368.459711290913
 72
     2
 10
1696.653120723017
 20
-1368.632948408123
 40
0.2000000000002081
 50
60.01836063118757
 51
240.0183606310009
 73
     1
 97
       14
330
1E3
330
32B
330
1D9
330
325
330
1D3
330
324
330
1D7
330
1CF
330
1D4
330
322
330
1D5
330
1D0
330
1E4
330
330
 75
     0
 76
     1
 98
        1
 10
0.0
 20
0.0
  0
HATCH
  5
3F1
330
1F
100
AcDbEntity
  8
1
  6
Continuous
 62
     2
100
AcDbHatch
 10
0.0
 20
0.0
 30
0.0
210
0.0
220
0.0
230
1.0
  2
SOLID
 70
     1
 71
     1
 91
        2
 92
        1
 93
        7
 72
     1
 10
1693.903315067234
 20
-1367.381131097746
 11
1699.053120723017
 21
-1364.410089373256
 72
     1
 10
1699.053120723017
 20
-1364.410089373256
 11
1704.2029263788
 21
-1367.381131097746
 72
     2
 10
1704.053009642753
 20
-1367.640986773561
 40
0.2999999999999545
 50
299.9816393688016
 51
360.0
 73
     0
 72
     2
 10
1704.053009642753
 20
-1367.640986773561
 40
0.2999999999994259
 50
0.0
 51
60.0183606310899
 73
     0
 72
     1
 10
1704.2029263788
 20
-1367.900842449375
 11
1699.053120723017
 21
-1370.871884173865
 72
     1
 10
1699.053120723017
 20
-1370.871884173865
 11
1693.903315067234
 21
-1367.900842449375
 72
     2
 10
1694.053231803281
 20
-1367.640986773561
 40
0.3000000000005243
 50
119.9816393689477
 51
240.0183606311608
 73
     0
 97
        7
330
1EF
330
1EC
330
2EA
330
31F
330
1ED
330
1F0
330
332
 92
       16
 93
        6
 72
     2
 10
1694.053231803281
 20
-1367.640986773561
 40
0.1000000000002025
 50
119.9816393687799
 51
240.0183606308946
 73
     1
 72
     1
 10
1694.003259557932
 20
-1367.727605332165
 11
1699.053120723017
 21
-1370.640986773561
 72
     1
 10
1699.053120723017
 20
-1370.640986773561
 11
1704.102981888102
 21
-1367.727605332165
 72
     2
 10
1704.053009642753
 20
-1367.640986773561
 40
0.0999999999992178
 50
299.9816393691054
 51
420.0183606312202
 73
     1
 72
     1
 10
1704.102981888102
 20
-1367.554368214956
 11
1699.053120723017
 21
-1364.640986773561
 72
     1
 10
1699.053120723017
 20
-1364.640986773561
 11
1694.003259557932
 21
-1367.554368214956
 97
        6
330
331
330
1F1
330
1E0
330
32A
330
1DE
330
1EE
 75
     0
 76
     1
 98
        1
 10
0.0
 20
0.0
  0
ENDSEC
  0
SECTION
  2
OBJECTS
  0
DICTIONARY
  5
C
330
0
100
AcDbDictionary
281
     1
  3
ACAD_GROUP
350
D
  3
ACAD_LAYOUT
350
1A
  3
ACAD_MATERIAL
350
3B
  3
ACAD_MLEADERSTYLE
350
3F4
  3
ACAD_MLINESTYLE
350
17
  3
ACAD_PLOTSETTINGS
350
19
  3
ACAD_PLOTSTYLENAME
350
E
  3
ACAD_VISUALSTYLE
350
2A
  3
AcDbVariableDictionary
350
3F2
  0
DICTIONARY
  5
D
102
{ACAD_REACTORS
330
C
102
}
330
C
100
AcDbDictionary
281
     1
  0
DICTIONARY
  5
1A
102
{ACAD_REACTORS
330
C
102
}
330
C
100
AcDbDictionary
281
     1
  3
Layout1
350
1E
  3
Layout2
350
26
  3
Model
350
22
  0
DICTIONARY
  5
3B
102
{ACAD_REACTORS
330
C
102
}
330
C
100
AcDbDictionary
281
     1
  3
ByBlock
350
3D
  3
ByLayer
350
3C
  3
Global
350
3E
  0
DICTIONARY
  5
3F4
102
{ACAD_REACTORS
330
C
102
}
330
C
100
AcDbDictionary
281
     1
  0
DICTIONARY
  5
17
102
{ACAD_REACTORS
330
C
102
}
330
C
100
AcDbDictionary
281
     1
  3
Standard
350
18
  0
DICTIONARY
  5
19
102
{ACAD_REACTORS
330
C
102
}
330
C
100
AcDbDictionary
281
     1
  0
ACDBDICTIONARYWDFLT
  5
E
102
{ACAD_REACTORS
330
C
102
}
330
C
100
AcDbDictionary
281
     1
  3
Normal
350
F
100
AcDbDictionaryWithDefault
340
F
  0
DICTIONARY
  5
2A
102
{ACAD_REACTORS
330
C
102
}
330
C
100
AcDbDictionary
281
     1
  3
2dWireframe
350
2F
  3
3D Hidden
350
31
  3
3dWireframe
350
30
  3
Basic
350
32
  3
Brighten
350
36
  3
ColorChange
350
3A
  3
Conceptual
350
34
  3
Dim
350
35
  3
Facepattern
350
39
  3
Flat
350
2B
  3
FlatWithEdges
350
2C
  3
Gouraud
350
2D
  3
GouraudWithEdges
350
2E
  3
Linepattern
350
38
  3
Realistic
350
33
  3
Thicken
350
37
  0
DICTIONARY
  5
3F2
102
{ACAD_REACTORS
330
C
102
}
330
C
100
AcDbDictionary
281
     1
  3
DIMASSOC
350
3F5
  3
HIDETEXT
350
3F6
  0
LAYOUT
  5
1E
102
{ACAD_REACTORS
330
1A
102
}
330
1A
100
AcDbPlotSettings
  1

  2
none_device
  4

  6

 40
0.0
 41
0.0
 42
0.0
 43
0.0
 44
0.0
 45
0.0
 46
0.0
 47
0.0
 48
0.0
 49
0.0
140
0.0
141
0.0
142
1.0
143
1.0
 70
   688
 72
     0
 73
     0
 74
     5
  7

 75
    16
147
1.0
148
0.0
149
0.0
100
AcDbLayout
  1
Layout1
 70
     1
 71
     1
 10
0.0
 20
0.0
 11
12.0
 21
9.0
 12
0.0
 22
0.0
 32
0.0
 14
1.00000000000000E+20
 24
1.00000000000000E+20
 34
1.00000000000000E+20
 15
-1.00000000000000E+20
 25
-1.00000000000000E+20
 35
-1.00000000000000E+20
146
0.0
 13
0.0
 23
0.0
 33
0.0
 16
1.0
 26
0.0
 36
0.0
 17
0.0
 27
1.0
 37
0.0
 76
     0
330
1B
  0
LAYOUT
  5
26
102
{ACAD_REACTORS
330
1A
102
}
330
1A
100
AcDbPlotSettings
  1

  2
none_device
  4

  6

 40
0.0
 41
0.0
 42
0.0
 43
0.0
 44
0.0
 45
0.0
 46
0.0
 47
0.0
 48
0.0
 49
0.0
140
0.0
141
0.0
142
1.0
143
1.0
 70
   688
 72
     0
 73
     0
 74
     5
  7

 75
    16
147
1.0
148
0.0
149
0.0
100
AcDbLayout
  1
Layout2
 70
     1
 71
     2
 10
0.0
 20
0.0
 11
0.0
 21
0.0
 12
0.0
 22
0.0
 32
0.0
 14
0.0
 24
0.0
 34
0.0
 15
0.0
 25
0.0
 35
0.0
146
0.0
 13
0.0
 23
0.0
 33
0.0
 16
1.0
 26
0.0
 36
0.0
 17
0.0
 27
1.0
 37
0.0
 76
     0
330
23
  0
LAYOUT
  5
22
102
{ACAD_REACTORS
330
1A
102
}
330
1A
100
AcDbPlotSettings
  1

  2
none_device
  4

  6

 40
0.0
 41
0.0
 42
0.0
 43
0.0
 44
0.0
 45
0.0
 46
0.0
 47
0.0
 48
0.0
 49
0.0
140
0.0
141
0.0
142
1.0
143
1.0
 70
  1712
 72
     0
 73
     0
 74
     0
  7

 75
     0
147
1.0
148
0.0
149
0.0
100
AcDbLayout
  1
Model
 70
     1
 71
     0
 10
0.0
 20
0.0
 11
12.0
 21
9.0
 12
0.0
 22
0.0
 32
0.0
 14
1623.00296059488
 24
-1531.59076759915
 34
0.0
 15
1833.00296059488
 25
-1234.59076759915
 35
0.0
146
0.0
 13
0.0
 23
0.0
 33
0.0
 16
1.0
 26
0.0
 36
0.0
 17
0.0
 27
1.0
 37
0.0
 76
     0
330
1F
331
29
  0
MATERIAL
  5
3D
102
{ACAD_REACTORS
330
3B
102
}
102
{ACAD_XDICTIONARY
360
419
102
}
330
3B
100
AcDbMaterial
  1
ByBlock
  0
MATERIAL
  5
3C
102
{ACAD_REACTORS
330
3B
102
}
102
{ACAD_XDICTIONARY
360
417
102
}
330
3B
100
AcDbMaterial
  1
ByLayer
  0
MATERIAL
  5
3E
102
{ACAD_REACTORS
330
3B
102
}
102
{ACAD_XDICTIONARY
360
41B
102
}
330
3B
100
AcDbMaterial
  1
Global
  0
MLINESTYLE
  5
18
102
{ACAD_REACTORS
330
17
102
}
330
17
100
AcDbMlineStyle
  2
Standard
 70
     0
  3

 62
   256
 51
90.0
 52
90.0
 71
     2
 49
0.5
 62
   256
  6
BYLAYER
 49
-0.5
 62
   256
  6
BYLAYER
  0
ACDBPLACEHOLDER
  5
F
102
{ACAD_REACTORS
330
E
102
}
330
E
  0
VISUALSTYLE
  5
2F
102
{ACAD_REACTORS
330
2A
102
}
102
{ACAD_XDICTIONARY
360
3FF
102
}
330
2A
100
AcDbVisualStyle
  2
2dWireframe
 70
     4
 71
     0
 72
     2
 73
     0
 90
        0
 40
-0.6
 41
-30.0
 62
     5
 63
     7
 74
     1
 91
        4
 64
     7
 65
   257
 75
     1
175
     1
 42
1.0
 92
        0
 66
   257
 43
1.0
 76
     1
 77
     6
 78
     2
 67
     7
 79
     5
170
     0
171
     0
290
     0
174
     0
 93
        1
 44
0.0
173
     0
291
     0
 45
0.0
1001
ACAD
1000
AcDbSavedByObjectVersion
1070
     0
  0
VISUALSTYLE
  5
31
102
{ACAD_REACTORS
330
2A
102
}
102
{ACAD_XDICTIONARY
360
403
102
}
330
2A
100
AcDbVisualStyle
  2
3D Hidden
 70
     6
 71
     1
 72
     2
 73
     2
 90
        0
 40
-0.6
 41
-30.0
 62
     5
 63
     7
 74
     2
 91
        2
 64
     7
 65
   257
 75
     2
175
     1
 42
40.0
 92
        0
 66
   257
 43
1.0
 76
     1
 77
     6
 78
     2
 67
     7
 79
     3
170
     0
171
     0
290
     0
174
     0
 93
        1
 44
0.0
173
     0
291
     0
 45
0.0
1001
ACAD
1000
AcDbSavedByObjectVersion
1070
     0
  0
VISUALSTYLE
  5
30
102
{ACAD_REACTORS
330
2A
102
}
102
{ACAD_XDICTIONARY
360
401
102
}
330
2A
100
AcDbVisualStyle
  2
3dWireframe
 70
     5
 71
     0
 72
     2
 73
     0
 90
        0
 40
-0.6
 41
-30.0
 62
     5
 63
     7
 74
     1
 91
        4
 64
     7
 65
   257
 75
     1
175
     1
 42
1.0
 92
        0
 66
   257
 43
1.0
 76
     1
 77
     6
 78
     2
 67
     7
 79
     5
170
     0
171
     0
290
     0
174
     0
 93
        1
 44
0.0
173
     0
291
     0
 45
0.0
1001
ACAD
1000
AcDbSavedByObjectVersion
1070
     0
  0
VISUALSTYLE
  5
32
102
{ACAD_REACTORS
330
2A
102
}
102
{ACAD_XDICTIONARY
360
405
102
}
330
2A
100
AcDbVisualStyle
  2
Basic
 70
     7
 71
     1
 72
     0
 73
     1
 90
        0
 40
-0.6
 41
-30.0
 62
     5
 63
     7
 74
     0
 91
        4
 64
     7
 65
   257
 75
     1
175
     1
 42
1.0
 92
        8
 66
     7
 43
1.0
 76
     1
 77
     6
 78
     2
 67
     7
 79
     5
170
     0
171
     0
290
     0
174
     0
 93
        1
 44
0.0
173
     0
291
     1
 45
0.0
1001
ACAD
1000
AcDbSavedByObjectVersion
1070
     0
  0
VISUALSTYLE
  5
36
102
{ACAD_REACTORS
330
2A
102
}
102
{ACAD_XDICTIONARY
360
40D
102
}
330
2A
100
AcDbVisualStyle
  2
Brighten
 70
    12
 71
     2
 72
     2
 73
     0
 90
        0
 40
-0.6
 41
-30.0
 62
     5
 63
     7
 74
     1
 91
        4
 64
     7
 65
   257
 75
     1
175
     1
 42
1.0
 92
        8
 66
     7
 43
1.0
 76
     1
 77
     6
 78
     2
 67
     7
 79
     5
170
     0
171
     0
290
     0
174
     0
 93
        1
 44
50.0
173
     0
291
     1
 45
0.0
1001
ACAD
1000
AcDbSavedByObjectVersion
1070
     0
  0
VISUALSTYLE
  5
3A
102
{ACAD_REACTORS
330
2A
102
}
102
{ACAD_XDICTIONARY
360
415
102
}
330
2A
100
AcDbVisualStyle
  2
ColorChange
 70
    16
 71
     2
 72
     2
 73
     3
 90
        0
 40
-0.6
 41
-30.0
 62
     5
 63
     8
 74
     1
 91
        4
 64
     7
 65
   257
 75
     1
175
     1
 42
1.0
 92
        8
 66
     8
 43
1.0
 76
     1
 77
     6
 78
     2
 67
     7
 79
     5
170
     0
171
     0
290
     0
174
     0
 93
        1
 44
0.0
173
     0
291
     1
 45
0.0
1001
ACAD
1000
AcDbSavedByObjectVersion
1070
     0
  0
VISUALSTYLE
  5
34
102
{ACAD_REACTORS
330
2A
102
}
102
{ACAD_XDICTIONARY
360
409
102
}
330
2A
100
AcDbVisualStyle
  2
Conceptual
 70
     9
 71
     3
 72
     2
 73
     0
 90
        0
 40
-0.6
 41
-30.0
 62
     5
 63
     7
 74
     2
 91
        2
 64
     7
 65
   257
 75
     1
175
     1
 42
40.0
 92
        8
 66
     7
 43
1.0
 76
     1
 77
     6
 78
     2
 67
     7
 79
     3
170
     0
171
     0
290
     0
174
     0
 93
        1
 44
0.0
173
     0
291
     0
 45
0.0
1001
ACAD
1000
AcDbSavedByObjectVersion
1070
     0
  0
VISUALSTYLE
  5
35
102
{ACAD_REACTORS
330
2A
102
}
102
{ACAD_XDICTIONARY
360
40B
102
}
330
2A
100
AcDbVisualStyle
  2
Dim
 70
    11
 71
     2
 72
     2
 73
     0
 90
        0
 40
-0.6
 41
-30.0
 62
     5
 63
     7
 74
     1
 91
        4
 64
     7
 65
   257
 75
     1
175
     1
 42
1.0
 92
        8
 66
     7
 43
1.0
 76
     1
 77
     6
 78
     2
 67
     7
 79
     5
170
     0
171
     0
290
     0
174
     0
 93
        1
 44
-50.0
173
     0
291
     1
 45
0.0
1001
ACAD
1000
AcDbSavedByObjectVersion
1070
     0
  0
VISUALSTYLE
  5
39
102
{ACAD_REACTORS
330
2A
102
}
102
{ACAD_XDICTIONARY
360
413
102
}
330
2A
100
AcDbVisualStyle
  2
Facepattern
 70
    15
 71
     2
 72
     2
 73
     0
 90
        0
 40
-0.6
 41
-30.0
 62
     5
 63
     7
 74
     1
 91
        4
 64
     7
 65
   257
 75
     1
175
     1
 42
1.0
 92
        8
 66
     7
 43
1.0
 76
     1
 77
     6
 78
     2
 67
     7
 79
     5
170
     0
171
     0
290
     0
174
     0
 93
        1
 44
0.0
173
     0
291
     1
 45
0.0
1001
ACAD
1000
AcDbSavedByObjectVersion
1070
     0
  0
VISUALSTYLE
  5
2B
102
{ACAD_REACTORS
330
2A
102
}
102
{ACAD_XDICTIONARY
360
3F7
102
}
330
2A
100
AcDbVisualStyle
  2
Flat
 70
     0
 71
     2
 72
     1
 73
     1
 90
        2
 40
-0.6
 41
30.0
 62
     5
 63
     7
 74
     0
 91
        4
 64
     7
 65
   257
 75
     1
175
     1
 42
1.0
 92
        8
 66
     7
 43
1.0
 76
     1
 77
     6
 78
     2
 67
     7
 79
     5
170
     0
171
     0
290
     0
174
     0
 93
       13
 44
0.0
173
     0
291
     1
 45
0.0
1001
ACAD
1000
AcDbSavedByObjectVersion
1070
     0
  0
VISUALSTYLE
  5
2C
102
{ACAD_REACTORS
330
2A
102
}
102
{ACAD_XDICTIONARY
360
3F9
102
}
330
2A
100
AcDbVisualStyle
  2
FlatWithEdges
 70
     1
 71
     2
 72
     1
 73
     1
 90
        2
 40
-0.6
 41
30.0
 62
     5
 63
     7
 74
     1
 91
        4
 64
     7
 65
   257
 75
     1
175
     1
 42
1.0
 92
        0
 66
   257
 43
1.0
 76
     1
 77
     6
 78
     2
 67
     7
 79
     5
170
     0
171
     0
290
     0
174
     0
 93
       13
 44
0.0
173
     0
291
     1
 45
0.0
1001
ACAD
1000
AcDbSavedByObjectVersion
1070
     0
  0
VISUALSTYLE
  5
2D
102
{ACAD_REACTORS
330
2A
102
}
102
{ACAD_XDICTIONARY
360
3FB
102
}
330
2A
100
AcDbVisualStyle
  2
Gouraud
 70
     2
 71
     2
 72
     2
 73
     1
 90
        2
 40
-0.6
 41
30.0
 62
     5
 63
     7
 74
     0
 91
        4
 64
     7
 65
   257
 75
     1
175
     1
 42
1.0
 92
        0
 66
     7
 43
1.0
 76
     1
 77
     6
 78
     2
 67
     7
 79
     5
170
     0
171
     0
290
     0
174
     0
 93
       13
 44
0.0
173
     0
291
     1
 45
0.0
1001
ACAD
1000
AcDbSavedByObjectVersion
1070
     0
  0
VISUALSTYLE
  5
2E
102
{ACAD_REACTORS
330
2A
102
}
102
{ACAD_XDICTIONARY
360
3FD
102
}
330
2A
100
AcDbVisualStyle
  2
GouraudWithEdges
 70
     3
 71
     2
 72
     2
 73
     1
 90
        2
 40
-0.6
 41
30.0
 62
     5
 63
     7
 74
     1
 91
        4
 64
     7
 65
   257
 75
     1
175
     1
 42
1.0
 92
        0
 66
   257
 43
1.0
 76
     1
 77
     6
 78
     2
 67
     7
 79
     5
170
     0
171
     0
290
     0
174
     0
 93
       13
 44
0.0
173
     0
291
     1
 45
0.0
1001
ACAD
1000
AcDbSavedByObjectVersion
1070
     0
  0
VISUALSTYLE
  5
38
102
{ACAD_REACTORS
330
2A
102
}
102
{ACAD_XDICTIONARY
360
411
102
}
330
2A
100
AcDbVisualStyle
  2
Linepattern
 70
    14
 71
     2
 72
     2
 73
     0
 90
        0
 40
-0.6
 41
-30.0
 62
     5
 63
     7
 74
     1
 91
        4
 64
     7
 65
   257
 75
     7
175
     7
 42
1.0
 92
        8
 66
     7
 43
1.0
 76
     1
 77
     6
 78
     2
 67
     7
 79
     5
170
     0
171
     0
290
     0
174
     0
 93
        1
 44
0.0
173
     0
291
     1
 45
0.0
1001
ACAD
1000
AcDbSavedByObjectVersion
1070
     0
  0
VISUALSTYLE
  5
33
102
{ACAD_REACTORS
330
2A
102
}
102
{ACAD_XDICTIONARY
360
407
102
}
330
2A
100
AcDbVisualStyle
  2
Realistic
 70
     8
 71
     2
 72
     2
 73
     0
 90
        0
 40
-0.6
 41
-30.0
 62
     5
 63
     7
 74
     1
 91
        0
 64
     7
 65
   257
 75
     1
175
     1
 42
1.0
 92
        8
 66
     8
 43
1.0
 76
     1
 77
     6
 78
     2
 67
     7
 79
     5
170
     0
171
     0
290
     0
174
     0
 93
       13
 44
0.0
173
     0
291
     0
 45
0.0
1001
ACAD
1000
AcDbSavedByObjectVersion
1070
     0
  0
VISUALSTYLE
  5
37
102
{ACAD_REACTORS
330
2A
102
}
102
{ACAD_XDICTIONARY
360
40F
102
}
330
2A
100
AcDbVisualStyle
  2
Thicken
 70
    13
 71
     2
 72
     2
 73
     0
 90
        0
 40
-0.6
 41
-30.0
 62
     5
 63
     7
 74
     1
 91
        4
 64
     7
 65
   257
 75
     1
175
     1
 42
1.0
 92
       12
 66
     7
 43
1.0
 76
     1
 77
     6
 78
     2
 67
     7
 79
     5
170
     0
171
     0
290
     0
174
     0
 93
        1
 44
0.0
173
     0
291
     1
 45
0.0
1001
ACAD
1000
AcDbSavedByObjectVersion
1070
     0
  0
DICTIONARYVAR
  5
3F5
102
{ACAD_REACTORS
330
3F2
102
}
330
3F2
100
DictionaryVariables
280
     0
  1
2
  0
DICTIONARYVAR
  5
3F6
102
{ACAD_REACTORS
330
3F2
102
}
330
3F2
100
DictionaryVariables
280
     0
  1
1
  0
DICTIONARY
  5
419
330
3D
100
AcDbDictionary
280
     1
281
     1
  3
ACAD_XREC_ROUNDTRIP
360
41A
  0
DICTIONARY
  5
417
330
3C
100
AcDbDictionary
280
     1
281
     1
  3
ACAD_XREC_ROUNDTRIP
360
418
  0
DICTIONARY
  5
41B
330
3E
100
AcDbDictionary
280
     1
281
     1
  3
ACAD_XREC_ROUNDTRIP
360
41C
  0
DICTIONARY
  5
3FF
330
2F
100
AcDbDictionary
280
     1
281
     1
  3
ACAD_XREC_ROUNDTRIP
360
400
  0
DICTIONARY
  5
403
330
31
100
AcDbDictionary
280
     1
281
     1
  3
ACAD_XREC_ROUNDTRIP
360
404
  0
DICTIONARY
  5
401
330
30
100
AcDbDictionary
280
     1
281
     1
  3
ACAD_XREC_ROUNDTRIP
360
402
  0
DICTIONARY
  5
405
330
32
100
AcDbDictionary
280
     1
281
     1
  3
ACAD_XREC_ROUNDTRIP
360
406
  0
DICTIONARY
  5
40D
330
36
100
AcDbDictionary
280
     1
281
     1
  3
ACAD_XREC_ROUNDTRIP
360
40E
  0
DICTIONARY
  5
415
330
3A
100
AcDbDictionary
280
     1
281
     1
  3
ACAD_XREC_ROUNDTRIP
360
416
  0
DICTIONARY
  5
409
330
34
100
AcDbDictionary
280
     1
281
     1
  3
ACAD_XREC_ROUNDTRIP
360
40A
  0
DICTIONARY
  5
40B
330
35
100
AcDbDictionary
280
     1
281
     1
  3
ACAD_XREC_ROUNDTRIP
360
40C
  0
DICTIONARY
  5
413
330
39
100
AcDbDictionary
280
     1
281
     1
  3
ACAD_XREC_ROUNDTRIP
360
414
  0
DICTIONARY
  5
3F7
330
2B
100
AcDbDictionary
280
     1
281
     1
  3
ACAD_XREC_ROUNDTRIP
360
3F8
  0
DICTIONARY
  5
3F9
330
2C
100
AcDbDictionary
280
     1
281
     1
  3
ACAD_XREC_ROUNDTRIP
360
3FA
  0
DICTIONARY
  5
3FB
330
2D
100
AcDbDictionary
280
     1
281
     1
  3
ACAD_XREC_ROUNDTRIP
360
3FC
  0
DICTIONARY
  5
3FD
330
2E
100
AcDbDictionary
280
     1
281
     1
  3
ACAD_XREC_ROUNDTRIP
360
3FE
  0
DICTIONARY
  5
411
330
38
100
AcDbDictionary
280
     1
281
     1
  3
ACAD_XREC_ROUNDTRIP
360
412
  0
DICTIONARY
  5
407
330
33
100
AcDbDictionary
280
     1
281
     1
  3
ACAD_XREC_ROUNDTRIP
360
408
  0
DICTIONARY
  5
40F
330
37
100
AcDbDictionary
280
     1
281
     1
  3
ACAD_XREC_ROUNDTRIP
360
410
  0
XRECORD
  5
41A
102
{ACAD_REACTORS
330
419
102
}
330
419
100
AcDbXrecord
280
     1
102
MATERIAL
148
0.0
149
0.0
149
0.0
 93
        0
 94
      127
282
     0
 72
     1
 77
     1
171
     1
175
     1
179
     1
273
     0
  0
XRECORD
  5
418
102
{ACAD_REACTORS
330
417
102
}
330
417
100
AcDbXrecord
280
     1
102
MATERIAL
148
0.0
149
0.0
149
0.0
 93
        0
 94
      127
282
     0
 72
     1
 77
     1
171
     1
175
     1
179
     1
273
     0
  0
XRECORD
  5
41C
102
{ACAD_REACTORS
330
41B
102
}
330
41B
100
AcDbXrecord
280
     1
102
MATERIAL
148
0.0
149
0.0
149
0.0
 93
        0
 94
      127
282
     0
 72
     1
 77
     1
171
     1
175
     1
179
     1
273
     0
  0
XRECORD
  5
400
102
{ACAD_REACTORS
330
3FF
102
}
330
3FF
100
AcDbXrecord
280
     1
102
RTVSPropertyOp0
 70
     1
102
RTVSPropertyOp1
 70
     1
102
RTVSPropertyOp2
 70
     1
102
RTVSPropertyOp3
 70
     1
102
RTVSPropertyOp4
 70
     1
102
RTVSPropertyOp5
 70
     1
102
RTVSPropertyOp6
 70
     1
102
RTVSPropertyOp7
 70
     1
102
RTVSPropertyOp8
 70
     1
102
RTVSPropertyOp9
 70
     1
102
RTVSPropertyOp10
 70
     1
102
RTVSPropertyOp11
 70
     1
102
RTVSPropertyOp12
 70
     1
102
RTVSPropertyOp13
 70
     1
102
RTVSPropertyOp14
 70
     1
102
RTVSPropertyOp15
 70
     1
102
RTVSPropertyOp16
 70
     1
102
RTVSPropertyOp17
 70
     1
102
RTVSPropertyOp18
 70
     1
102
RTVSPropertyOp19
 70
     1
102
RTVSPropertyOp20
 70
     1
102
RTVSPropertyOp21
 70
     1
102
RTVSPropertyOp22
 70
     1
102
RTVSPropertyOp23
 70
     1
102
RTVSPropertyOp24
 70
     1
102
RTVSPropertyOp25
 70
     1
102
RTVSPropertyOp26
 70
     1
102
RTVSPropertyOp27
 70
     1
102
RTVSPropertyOp28
 70
     1
102
RTVSPropertyOp29
 70
     1
102
RTVSPropertyOp30
 70
     1
102
RTVSPropertyOp31
 70
     1
102
RTVSPropertyOp32
 70
     1
  0
XRECORD
  5
404
102
{ACAD_REACTORS
330
403
102
}
330
403
100
AcDbXrecord
280
     1
102
RTVSPropertyOp0
 70
     1
102
RTVSPropertyOp1
 70
     1
102
RTVSPropertyOp2
 70
     1
102
RTVSPropertyOp3
 70
     1
102
RTVSPropertyOp4
 70
     1
102
RTVSPropertyOp5
 70
     1
102
RTVSPropertyOp6
 70
     1
102
RTVSPropertyOp7
 70
     1
102
RTVSPropertyOp8
 70
     1
102
RTVSPropertyOp9
 70
     1
102
RTVSPropertyOp10
 70
     1
102
RTVSPropertyOp11
 70
     1
102
RTVSPropertyOp12
 70
     1
102
RTVSPropertyOp13
 70
     1
102
RTVSPropertyOp14
 70
     1
102
RTVSPropertyOp15
 70
     1
102
RTVSPropertyOp16
 70
     1
102
RTVSPropertyOp17
 70
     1
102
RTVSPropertyOp18
 70
     1
102
RTVSPropertyOp19
 70
     1
102
RTVSPropertyOp20
 70
     1
102
RTVSPropertyOp21
 70
     1
102
RTVSPropertyOp22
 70
     1
102
RTVSPropertyOp23
 70
     1
102
RTVSPropertyOp24
 70
     1
102
RTVSPropertyOp25
 70
     1
102
RTVSPropertyOp26
 70
     1
102
RTVSPropertyOp27
 70
     1
102
RTVSPropertyOp28
 70
     1
102
RTVSPropertyOp29
 70
     1
102
RTVSPropertyOp30
 70
     1
102
RTVSPropertyOp31
 70
     1
102
RTVSPropertyOp32
 70
     1
  0
XRECORD
  5
402
102
{ACAD_REACTORS
330
401
102
}
330
401
100
AcDbXrecord
280
     1
102
RTVSPropertyOp0
 70
     1
102
RTVSPropertyOp1
 70
     1
102
RTVSPropertyOp2
 70
     1
102
RTVSPropertyOp3
 70
     1
102
RTVSPropertyOp4
 70
     1
102
RTVSPropertyOp5
 70
     1
102
RTVSPropertyOp6
 70
     1
102
RTVSPropertyOp7
 70
     1
102
RTVSPropertyOp8
 70
     1
102
RTVSPropertyOp9
 70
     1
102
RTVSPropertyOp10
 70
     1
102
RTVSPropertyOp11
 70
     1
102
RTVSPropertyOp12
 70
     1
102
RTVSPropertyOp13
 70
     1
102
RTVSPropertyOp14
 70
     1
102
RTVSPropertyOp15
 70
     1
102
RTVSPropertyOp16
 70
     1
102
RTVSPropertyOp17
 70
     1
102
RTVSPropertyOp18
 70
     1
102
RTVSPropertyOp19
 70
     1
102
RTVSPropertyOp20
 70
     1
102
RTVSPropertyOp21
 70
     1
102
RTVSPropertyOp22
 70
     1
102
RTVSPropertyOp23
 70
     1
102
RTVSPropertyOp24
 70
     1
102
RTVSPropertyOp25
 70
     1
102
RTVSPropertyOp26
 70
     1
102
RTVSPropertyOp27
 70
     1
102
RTVSPropertyOp28
 70
     1
102
RTVSPropertyOp29
 70
     1
102
RTVSPropertyOp30
 70
     1
102
RTVSPropertyOp31
 70
     1
102
RTVSPropertyOp32
 70
     1
  0
XRECORD
  5
406
102
{ACAD_REACTORS
330
405
102
}
330
405
100
AcDbXrecord
280
     1
102
RTVSPropertyOp0
 70
     1
102
RTVSPropertyOp1
 70
     1
102
RTVSPropertyOp2
 70
     1
102
RTVSPropertyOp3
 70
     1
102
RTVSPropertyOp4
 70
     1
102
RTVSPropertyOp5
 70
     1
102
RTVSPropertyOp6
 70
     1
102
RTVSPropertyOp7
 70
     1
102
RTVSPropertyOp8
 70
     1
102
RTVSPropertyOp9
 70
     1
102
RTVSPropertyOp10
 70
     1
102
RTVSPropertyOp11
 70
     1
102
RTVSPropertyOp12
 70
     1
102
RTVSPropertyOp13
 70
     1
102
RTVSPropertyOp14
 70
     1
102
RTVSPropertyOp15
 70
     1
102
RTVSPropertyOp16
 70
     1
102
RTVSPropertyOp17
 70
     1
102
RTVSPropertyOp18
 70
     1
102
RTVSPropertyOp19
 70
     1
102
RTVSPropertyOp20
 70
     1
102
RTVSPropertyOp21
 70
     1
102
RTVSPropertyOp22
 70
     1
102
RTVSPropertyOp23
 70
     1
102
RTVSPropertyOp24
 70
     1
102
RTVSPropertyOp25
 70
     1
102
RTVSPropertyOp26
 70
     1
102
RTVSPropertyOp27
 70
     1
102
RTVSPropertyOp28
 70
     1
102
RTVSPropertyOp29
 70
     1
102
RTVSPropertyOp30
 70
     1
102
RTVSPropertyOp31
 70
     1
102
RTVSPropertyOp32
 70
     1
  0
XRECORD
  5
40E
102
{ACAD_REACTORS
330
40D
102
}
330
40D
100
AcDbXrecord
280
     1
102
RTVSPropertyOp0
 70
     1
102
RTVSPropertyOp1
 70
     1
102
RTVSPropertyOp2
 70
     1
102
RTVSPropertyOp3
 70
     1
102
RTVSPropertyOp4
 70
     1
102
RTVSPropertyOp5
 70
     1
102
RTVSPropertyOp6
 70
     1
102
RTVSPropertyOp7
 70
     1
102
RTVSPropertyOp8
 70
     1
102
RTVSPropertyOp9
 70
     1
102
RTVSPropertyOp10
 70
     1
102
RTVSPropertyOp11
 70
     1
102
RTVSPropertyOp12
 70
     1
102
RTVSPropertyOp13
 70
     1
102
RTVSPropertyOp14
 70
     1
102
RTVSPropertyOp15
 70
     1
102
RTVSPropertyOp16
 70
     1
102
RTVSPropertyOp17
 70
     1
102
RTVSPropertyOp18
 70
     1
102
RTVSPropertyOp19
 70
     1
102
RTVSPropertyOp20
 70
     1
102
RTVSPropertyOp21
 70
     1
102
RTVSPropertyOp22
 70
     1
102
RTVSPropertyOp23
 70
     1
102
RTVSPropertyOp24
 70
     1
102
RTVSPropertyOp25
 70
     1
102
RTVSPropertyOp26
 70
     1
102
RTVSPropertyOp27
 70
     1
102
RTVSPropertyOp28
 70
     1
102
RTVSPropertyOp29
 70
     1
102
RTVSPropertyOp30
 70
     1
102
RTVSPropertyOp31
 70
     1
102
RTVSPropertyOp32
 70
     1
  0
XRECORD
  5
416
102
{ACAD_REACTORS
330
415
102
}
330
415
100
AcDbXrecord
280
     1
102
RTVSPropertyOp0
 70
     1
102
RTVSPropertyOp1
 70
     1
102
RTVSPropertyOp2
 70
     1
102
RTVSPropertyOp3
 70
     1
102
RTVSPropertyOp4
 70
     1
102
RTVSPropertyOp5
 70
     1
102
RTVSPropertyOp6
 70
     1
102
RTVSPropertyOp7
 70
     1
102
RTVSPropertyOp8
 70
     1
102
RTVSPropertyOp9
 70
     1
102
RTVSPropertyOp10
 70
     1
102
RTVSPropertyOp11
 70
     1
102
RTVSPropertyOp12
 70
     1
102
RTVSPropertyOp13
 70
     1
102
RTVSPropertyOp14
 70
     1
102
RTVSPropertyOp15
 70
     1
102
RTVSPropertyOp16
 70
     1
102
RTVSPropertyOp17
 70
     1
102
RTVSPropertyOp18
 70
     1
102
RTVSPropertyOp19
 70
     1
102
RTVSPropertyOp20
 70
     1
102
RTVSPropertyOp21
 70
     1
102
RTVSPropertyOp22
 70
     1
102
RTVSPropertyOp23
 70
     1
102
RTVSPropertyOp24
 70
     1
102
RTVSPropertyOp25
 70
     1
102
RTVSPropertyOp26
 70
     1
102
RTVSPropertyOp27
 70
     1
102
RTVSPropertyOp28
 70
     1
102
RTVSPropertyOp29
 70
     1
102
RTVSPropertyOp30
 70
     1
102
RTVSPropertyOp31
 70
     1
102
RTVSPropertyOp32
 70
     1
  0
XRECORD
  5
40A
102
{ACAD_REACTORS
330
409
102
}
330
409
100
AcDbXrecord
280
     1
102
RTVSPropertyOp0
 70
     1
102
RTVSPropertyOp1
 70
     1
102
RTVSPropertyOp2
 70
     1
102
RTVSPropertyOp3
 70
     1
102
RTVSPropertyOp4
 70
     1
102
RTVSPropertyOp5
 70
     1
102
RTVSPropertyOp6
 70
     1
102
RTVSPropertyOp7
 70
     1
102
RTVSPropertyOp8
 70
     1
102
RTVSPropertyOp9
 70
     1
102
RTVSPropertyOp10
 70
     1
102
RTVSPropertyOp11
 70
     1
102
RTVSPropertyOp12
 70
     1
102
RTVSPropertyOp13
 70
     1
102
RTVSPropertyOp14
 70
     1
102
RTVSPropertyOp15
 70
     1
102
RTVSPropertyOp16
 70
     1
102
RTVSPropertyOp17
 70
     1
102
RTVSPropertyOp18
 70
     1
102
RTVSPropertyOp19
 70
     1
102
RTVSPropertyOp20
 70
     1
102
RTVSPropertyOp21
 70
     1
102
RTVSPropertyOp22
 70
     1
102
RTVSPropertyOp23
 70
     1
102
RTVSPropertyOp24
 70
     1
102
RTVSPropertyOp25
 70
     1
102
RTVSPropertyOp26
 70
     1
102
RTVSPropertyOp27
 70
     1
102
RTVSPropertyOp28
 70
     1
102
RTVSPropertyOp29
 70
     1
102
RTVSPropertyOp30
 70
     1
102
RTVSPropertyOp31
 70
     1
102
RTVSPropertyOp32
 70
     1
  0
XRECORD
  5
40C
102
{ACAD_REACTORS
330
40B
102
}
330
40B
100
AcDbXrecord
280
     1
102
RTVSPropertyOp0
 70
     1
102
RTVSPropertyOp1
 70
     1
102
RTVSPropertyOp2
 70
     1
102
RTVSPropertyOp3
 70
     1
102
RTVSPropertyOp4
 70
     1
102
RTVSPropertyOp5
 70
     1
102
RTVSPropertyOp6
 70
     1
102
RTVSPropertyOp7
 70
     1
102
RTVSPropertyOp8
 70
     1
102
RTVSPropertyOp9
 70
     1
102
RTVSPropertyOp10
 70
     1
102
RTVSPropertyOp11
 70
     1
102
RTVSPropertyOp12
 70
     1
102
RTVSPropertyOp13
 70
     1
102
RTVSPropertyOp14
 70
     1
102
RTVSPropertyOp15
 70
     1
102
RTVSPropertyOp16
 70
     1
102
RTVSPropertyOp17
 70
     1
102
RTVSPropertyOp18
 70
     1
102
RTVSPropertyOp19
 70
     1
102
RTVSPropertyOp20
 70
     1
102
RTVSPropertyOp21
 70
     1
102
RTVSPropertyOp22
 70
     1
102
RTVSPropertyOp23
 70
     1
102
RTVSPropertyOp24
 70
     1
102
RTVSPropertyOp25
 70
     1
102
RTVSPropertyOp26
 70
     1
102
RTVSPropertyOp27
 70
     1
102
RTVSPropertyOp28
 70
     1
102
RTVSPropertyOp29
 70
     1
102
RTVSPropertyOp30
 70
     1
102
RTVSPropertyOp31
 70
     1
102
RTVSPropertyOp32
 70
     1
  0
XRECORD
  5
414
102
{ACAD_REACTORS
330
413
102
}
330
413
100
AcDbXrecord
280
     1
102
RTVSPropertyOp0
 70
     1
102
RTVSPropertyOp1
 70
     1
102
RTVSPropertyOp2
 70
     1
102
RTVSPropertyOp3
 70
     1
102
RTVSPropertyOp4
 70
     1
102
RTVSPropertyOp5
 70
     1
102
RTVSPropertyOp6
 70
     1
102
RTVSPropertyOp7
 70
     1
102
RTVSPropertyOp8
 70
     1
102
RTVSPropertyOp9
 70
     1
102
RTVSPropertyOp10
 70
     1
102
RTVSPropertyOp11
 70
     1
102
RTVSPropertyOp12
 70
     1
102
RTVSPropertyOp13
 70
     1
102
RTVSPropertyOp14
 70
     1
102
RTVSPropertyOp15
 70
     1
102
RTVSPropertyOp16
 70
     1
102
RTVSPropertyOp17
 70
     1
102
RTVSPropertyOp18
 70
     1
102
RTVSPropertyOp19
 70
     1
102
RTVSPropertyOp20
 70
     1
102
RTVSPropertyOp21
 70
     1
102
RTVSPropertyOp22
 70
     1
102
RTVSPropertyOp23
 70
     1
102
RTVSPropertyOp24
 70
     1
102
RTVSPropertyOp25
 70
     1
102
RTVSPropertyOp26
 70
     1
102
RTVSPropertyOp27
 70
     1
102
RTVSPropertyOp28
 70
     1
102
RTVSPropertyOp29
 70
     1
102
RTVSPropertyOp30
 70
     1
102
RTVSPropertyOp31
 70
     1
102
RTVSPropertyOp32
 70
     1
  0
XRECORD
  5
3F8
102
{ACAD_REACTORS
330
3F7
102
}
330
3F7
100
AcDbXrecord
280
     1
102
RTVSPropertyOp0
 70
     1
102
RTVSPropertyOp1
 70
     1
102
RTVSPropertyOp2
 70
     1
102
RTVSPropertyOp3
 70
     1
102
RTVSPropertyOp4
 70
     1
102
RTVSPropertyOp5
 70
     1
102
RTVSPropertyOp6
 70
     1
102
RTVSPropertyOp7
 70
     1
102
RTVSPropertyOp8
 70
     1
102
RTVSPropertyOp9
 70
     1
102
RTVSPropertyOp10
 70
     1
102
RTVSPropertyOp11
 70
     1
102
RTVSPropertyOp12
 70
     1
102
RTVSPropertyOp13
 70
     1
102
RTVSPropertyOp14
 70
     1
102
RTVSPropertyOp15
 70
     1
102
RTVSPropertyOp16
 70
     1
102
RTVSPropertyOp17
 70
     1
102
RTVSPropertyOp18
 70
     1
102
RTVSPropertyOp19
 70
     1
102
RTVSPropertyOp20
 70
     1
102
RTVSPropertyOp21
 70
     1
102
RTVSPropertyOp22
 70
     1
102
RTVSPropertyOp23
 70
     1
102
RTVSPropertyOp24
 70
     1
102
RTVSPropertyOp25
 70
     1
102
RTVSPropertyOp26
 70
     1
102
RTVSPropertyOp27
 70
     1
102
RTVSPropertyOp28
 70
     1
102
RTVSPropertyOp29
 70
     1
102
RTVSPropertyOp30
 70
     1
102
RTVSPropertyOp31
 70
     1
102
RTVSPropertyOp32
 70
     1
  0
XRECORD
  5
3FA
102
{ACAD_REACTORS
330
3F9
102
}
330
3F9
100
AcDbXrecord
280
     1
102
RTVSPropertyOp0
 70
     1
102
RTVSPropertyOp1
 70
     1
102
RTVSPropertyOp2
 70
     1
102
RTVSPropertyOp3
 70
     1
102
RTVSPropertyOp4
 70
     1
102
RTVSPropertyOp5
 70
     1
102
RTVSPropertyOp6
 70
     1
102
RTVSPropertyOp7
 70
     1
102
RTVSPropertyOp8
 70
     1
102
RTVSPropertyOp9
 70
     1
102
RTVSPropertyOp10
 70
     1
102
RTVSPropertyOp11
 70
     1
102
RTVSPropertyOp12
 70
     1
102
RTVSPropertyOp13
 70
     1
102
RTVSPropertyOp14
 70
     1
102
RTVSPropertyOp15
 70
     1
102
RTVSPropertyOp16
 70
     1
102
RTVSPropertyOp17
 70
     1
102
RTVSPropertyOp18
 70
     1
102
RTVSPropertyOp19
 70
     1
102
RTVSPropertyOp20
 70
     1
102
RTVSPropertyOp21
 70
     1
102
RTVSPropertyOp22
 70
     1
102
RTVSPropertyOp23
 70
     1
102
RTVSPropertyOp24
 70
     1
102
RTVSPropertyOp25
 70
     1
102
RTVSPropertyOp26
 70
     1
102
RTVSPropertyOp27
 70
     1
102
RTVSPropertyOp28
 70
     1
102
RTVSPropertyOp29
 70
     1
102
RTVSPropertyOp30
 70
     1
102
RTVSPropertyOp31
 70
     1
102
RTVSPropertyOp32
 70
     1
  0
XRECORD
  5
3FC
102
{ACAD_REACTORS
330
3FB
102
}
330
3FB
100
AcDbXrecord
280
     1
102
RTVSPropertyOp0
 70
     1
102
RTVSPropertyOp1
 70
     1
102
RTVSPropertyOp2
 70
     1
102
RTVSPropertyOp3
 70
     1
102
RTVSPropertyOp4
 70
     1
102
RTVSPropertyOp5
 70
     1
102
RTVSPropertyOp6
 70
     1
102
RTVSPropertyOp7
 70
     1
102
RTVSPropertyOp8
 70
     1
102
RTVSPropertyOp9
 70
     1
102
RTVSPropertyOp10
 70
     1
102
RTVSPropertyOp11
 70
     1
102
RTVSPropertyOp12
 70
     1
102
RTVSPropertyOp13
 70
     1
102
RTVSPropertyOp14
 70
     1
102
RTVSPropertyOp15
 70
     1
102
RTVSPropertyOp16
 70
     1
102
RTVSPropertyOp17
 70
     1
102
RTVSPropertyOp18
 70
     1
102
RTVSPropertyOp19
 70
     1
102
RTVSPropertyOp20
 70
     1
102
RTVSPropertyOp21
 70
     1
102
RTVSPropertyOp22
 70
     1
102
RTVSPropertyOp23
 70
     1
102
RTVSPropertyOp24
 70
     1
102
RTVSPropertyOp25
 70
     1
102
RTVSPropertyOp26
 70
     1
102
RTVSPropertyOp27
 70
     1
102
RTVSPropertyOp28
 70
     1
102
RTVSPropertyOp29
 70
     1
102
RTVSPropertyOp30
 70
     1
102
RTVSPropertyOp31
 70
     1
102
RTVSPropertyOp32
 70
     1
  0
XRECORD
  5
3FE
102
{ACAD_REACTORS
330
3FD
102
}
330
3FD
100
AcDbXrecord
280
     1
102
RTVSPropertyOp0
 70
     1
102
RTVSPropertyOp1
 70
     1
102
RTVSPropertyOp2
 70
     1
102
RTVSPropertyOp3
 70
     1
102
RTVSPropertyOp4
 70
     1
102
RTVSPropertyOp5
 70
     1
102
RTVSPropertyOp6
 70
     1
102
RTVSPropertyOp7
 70
     1
102
RTVSPropertyOp8
 70
     1
102
RTVSPropertyOp9
 70
     1
102
RTVSPropertyOp10
 70
     1
102
RTVSPropertyOp11
 70
     1
102
RTVSPropertyOp12
 70
     1
102
RTVSPropertyOp13
 70
     1
102
RTVSPropertyOp14
 70
     1
102
RTVSPropertyOp15
 70
     1
102
RTVSPropertyOp16
 70
     1
102
RTVSPropertyOp17
 70
     1
102
RTVSPropertyOp18
 70
     1
102
RTVSPropertyOp19
 70
     1
102
RTVSPropertyOp20
 70
     1
102
RTVSPropertyOp21
 70
     1
102
RTVSPropertyOp22
 70
     1
102
RTVSPropertyOp23
 70
     1
102
RTVSPropertyOp24
 70
     1
102
RTVSPropertyOp25
 70
     1
102
RTVSPropertyOp26
 70
     1
102
RTVSPropertyOp27
 70
     1
102
RTVSPropertyOp28
 70
     1
102
RTVSPropertyOp29
 70
     1
102
RTVSPropertyOp30
 70
     1
102
RTVSPropertyOp31
 70
     1
102
RTVSPropertyOp32
 70
     1
  0
XRECORD
  5
412
102
{ACAD_REACTORS
330
411
102
}
330
411
100
AcDbXrecord
280
     1
102
RTVSPropertyOp0
 70
     1
102
RTVSPropertyOp1
 70
     1
102
RTVSPropertyOp2
 70
     1
102
RTVSPropertyOp3
 70
     1
102
RTVSPropertyOp4
 70
     1
102
RTVSPropertyOp5
 70
     1
102
RTVSPropertyOp6
 70
     1
102
RTVSPropertyOp7
 70
     1
102
RTVSPropertyOp8
 70
     1
102
RTVSPropertyOp9
 70
     1
102
RTVSPropertyOp10
 70
     1
102
RTVSPropertyOp11
 70
     1
102
RTVSPropertyOp12
 70
     1
102
RTVSPropertyOp13
 70
     1
102
RTVSPropertyOp14
 70
     1
102
RTVSPropertyOp15
 70
     1
102
RTVSPropertyOp16
 70
     1
102
RTVSPropertyOp17
 70
     1
102
RTVSPropertyOp18
 70
     1
102
RTVSPropertyOp19
 70
     1
102
RTVSPropertyOp20
 70
     1
102
RTVSPropertyOp21
 70
     1
102
RTVSPropertyOp22
 70
     1
102
RTVSPropertyOp23
 70
     1
102
RTVSPropertyOp24
 70
     1
102
RTVSPropertyOp25
 70
     1
102
RTVSPropertyOp26
 70
     1
102
RTVSPropertyOp27
 70
     1
102
RTVSPropertyOp28
 70
     1
102
RTVSPropertyOp29
 70
     1
102
RTVSPropertyOp30
 70
     1
102
RTVSPropertyOp31
 70
     1
102
RTVSPropertyOp32
 70
     1
  0
XRECORD
  5
408
102
{ACAD_REACTORS
330
407
102
}
330
407
100
AcDbXrecord
280
     1
102
RTVSPropertyOp0
 70
     1
102
RTVSPropertyOp1
 70
     1
102
RTVSPropertyOp2
 70
     1
102
RTVSPropertyOp3
 70
     1
102
RTVSPropertyOp4
 70
     1
102
RTVSPropertyOp5
 70
     1
102
RTVSPropertyOp6
 70
     1
102
RTVSPropertyOp7
 70
     1
102
RTVSPropertyOp8
 70
     1
102
RTVSPropertyOp9
 70
     1
102
RTVSPropertyOp10
 70
     1
102
RTVSPropertyOp11
 70
     1
102
RTVSPropertyOp12
 70
     1
102
RTVSPropertyOp13
 70
     1
102
RTVSPropertyOp14
 70
     1
102
RTVSPropertyOp15
 70
     1
102
RTVSPropertyOp16
 70
     1
102
RTVSPropertyOp17
 70
     1
102
RTVSPropertyOp18
 70
     1
102
RTVSPropertyOp19
 70
     1
102
RTVSPropertyOp20
 70
     1
102
RTVSPropertyOp21
 70
     1
102
RTVSPropertyOp22
 70
     1
102
RTVSPropertyOp23
 70
     1
102
RTVSPropertyOp24
 70
     1
102
RTVSPropertyOp25
 70
     1
102
RTVSPropertyOp26
 70
     1
102
RTVSPropertyOp27
 70
     1
102
RTVSPropertyOp28
 70
     1
102
RTVSPropertyOp29
 70
     1
102
RTVSPropertyOp30
 70
     1
102
RTVSPropertyOp31
 70
     1
102
RTVSPropertyOp32
 70
     1
  0
XRECORD
  5
410
102
{ACAD_REACTORS
330
40F
102
}
330
40F
100
AcDbXrecord
280
     1
102
RTVSPropertyOp0
 70
     1
102
RTVSPropertyOp1
 70
     1
102
RTVSPropertyOp2
 70
     1
102
RTVSPropertyOp3
 70
     1
102
RTVSPropertyOp4
 70
     1
102
RTVSPropertyOp5
 70
     1
102
RTVSPropertyOp6
 70
     1
102
RTVSPropertyOp7
 70
     1
102
RTVSPropertyOp8
 70
     1
102
RTVSPropertyOp9
 70
     1
102
RTVSPropertyOp10
 70
     1
102
RTVSPropertyOp11
 70
     1
102
RTVSPropertyOp12
 70
     1
102
RTVSPropertyOp13
 70
     1
102
RTVSPropertyOp14
 70
     1
102
RTVSPropertyOp15
 70
     1
102
RTVSPropertyOp16
 70
     1
102
RTVSPropertyOp17
 70
     1
102
RTVSPropertyOp18
 70
     1
102
RTVSPropertyOp19
 70
     1
102
RTVSPropertyOp20
 70
     1
102
RTVSPropertyOp21
 70
     1
102
RTVSPropertyOp22
 70
     1
102
RTVSPropertyOp23
 70
     1
102
RTVSPropertyOp24
 70
     1
102
RTVSPropertyOp25
 70
     1
102
RTVSPropertyOp26
 70
     1
102
RTVSPropertyOp27
 70
     1
102
RTVSPropertyOp28
 70
     1
102
RTVSPropertyOp29
 70
     1
102
RTVSPropertyOp30
 70
     1
102
RTVSPropertyOp31
 70
     1
102
RTVSPropertyOp32
 70
     1
  0
ENDSEC
  0
EOF
